  0
SECTION
  2
HEADER
  9
$ACADVER
  1
AC1015
  9
$ACADMAINTVER
 70
     6
  9
$DWGCODEPAGE
  3
ANSI_1252
  9
$INSBASE
 10
0.0
 20
0.0
 30
0.0
  9
$EXTMIN
 10
0.0
 20
0.0
 30
0.0
  9
$EXTMAX
 10
210.0000000000001
 20
297.0000000000001
 30
0.0
  9
$LIMMIN
 10
0.0
 20
0.0
  9
$LIMMAX
 10
12.0
 20
9.0
  9
$ORTHOMODE
 70
     0
  9
$REGENMODE
 70
     1
  9
$FILLMODE
 70
     1
  9
$QTEXTMODE
 70
     0
  9
$MIRRTEXT
 70
     1
  9
$LTSCALE
 40
1.0
  9
$ATTMODE
 70
     1
  9
$TEXTSIZE
 40
0.2
  9
$TRACEWID
 40
0.05
  9
$TEXTSTYLE
  7
Standard
  9
$CLAYER
  8
0
  9
$CELTYPE
  6
ByLayer
  9
$CECOLOR
 62
   256
  9
$CELTSCALE
 40
1.0
  9
$DISPSILH
 70
     0
  9
$DIMSCALE
 40
1.0
  9
$DIMASZ
 40
0.18
  9
$DIMEXO
 40
0.0625
  9
$DIMDLI
 40
0.38
  9
$DIMRND
 40
0.0
  9
$DIMDLE
 40
0.0
  9
$DIMEXE
 40
0.18
  9
$DIMTP
 40
0.0
  9
$DIMTM
 40
0.0
  9
$DIMTXT
 40
0.18
  9
$DIMCEN
 40
0.09
  9
$DIMTSZ
 40
0.0
  9
$DIMTOL
 70
     0
  9
$DIMLIM
 70
     0
  9
$DIMTIH
 70
     1
  9
$DIMTOH
 70
     1
  9
$DIMSE1
 70
     0
  9
$DIMSE2
 70
     0
  9
$DIMTAD
 70
     0
  9
$DIMZIN
 70
     0
  9
$DIMBLK
  1

  9
$DIMASO
 70
     1
  9
$DIMSHO
 70
     1
  9
$DIMPOST
  1

  9
$DIMAPOST
  1

  9
$DIMALT
 70
     0
  9
$DIMALTD
 70
     2
  9
$DIMALTF
 40
25.4
  9
$DIMLFAC
 40
1.0
  9
$DIMTOFL
 70
     0
  9
$DIMTVP
 40
0.0
  9
$DIMTIX
 70
     0
  9
$DIMSOXD
 70
     0
  9
$DIMSAH
 70
     0
  9
$DIMBLK1
  1

  9
$DIMBLK2
  1

  9
$DIMSTYLE
  2
Standard
  9
$DIMCLRD
 70
     0
  9
$DIMCLRE
 70
     0
  9
$DIMCLRT
 70
     0
  9
$DIMTFAC
 40
1.0
  9
$DIMGAP
 40
0.09
  9
$DIMJUST
 70
     0
  9
$DIMSD1
 70
     0
  9
$DIMSD2
 70
     0
  9
$DIMTOLJ
 70
     1
  9
$DIMTZIN
 70
     0
  9
$DIMALTZ
 70
     0
  9
$DIMALTTZ
 70
     0
  9
$DIMUPT
 70
     0
  9
$DIMDEC
 70
     4
  9
$DIMTDEC
 70
     4
  9
$DIMALTU
 70
     2
  9
$DIMALTTD
 70
     2
  9
$DIMTXSTY
  7
Standard
  9
$DIMAUNIT
 70
     0
  9
$DIMADEC
 70
     0
  9
$DIMALTRND
 40
0.0
  9
$DIMAZIN
 70
     0
  9
$DIMDSEP
 70
    46
  9
$DIMATFIT
 70
     3
  9
$DIMFRAC
 70
     0
  9
$DIMLDRBLK
  1

  9
$DIMLUNIT
 70
     2
  9
$DIMLWD
 70
    -2
  9
$DIMLWE
 70
    -2
  9
$DIMTMOVE
 70
     0
  9
$LUNITS
 70
     2
  9
$LUPREC
 70
     4
  9
$SKETCHINC
 40
0.1
  9
$FILLETRAD
 40
0.5
  9
$AUNITS
 70
     0
  9
$AUPREC
 70
     0
  9
$MENU
  1
.
  9
$ELEVATION
 40
0.0
  9
$PELEVATION
 40
0.0
  9
$THICKNESS
 40
0.0
  9
$LIMCHECK
 70
     0
  9
$CHAMFERA
 40
0.5
  9
$CHAMFERB
 40
0.5
  9
$CHAMFERC
 40
1.0
  9
$CHAMFERD
 40
0.0
  9
$SKPOLY
 70
     0
  9
$TDCREATE
 40
2456997.597011528
  9
$TDUCREATE
 40
2456997.555344861
  9
$TDUPDATE
 40
2456997.597011887
  9
$TDUUPDATE
 40
2456997.55534522
  9
$TDINDWG
 40
0.0000000116
  9
$TDUSRTIMER
 40
0.0000000116
  9
$USRTIMER
 70
     1
  9
$ANGBASE
 50
0.0
  9
$ANGDIR
 70
     0
  9
$PDMODE
 70
     0
  9
$PDSIZE
 40
0.0
  9
$PLINEWID
 40
0.0
  9
$SPLFRAME
 70
     0
  9
$SPLINETYPE
 70
     6
  9
$SPLINESEGS
 70
     8
  9
$HANDSEED
  5
2A4
  9
$SURFTAB1
 70
     6
  9
$SURFTAB2
 70
     6
  9
$SURFTYPE
 70
     6
  9
$SURFU
 70
     6
  9
$SURFV
 70
     6
  9
$UCSBASE
  2

  9
$UCSNAME
  2

  9
$UCSORG
 10
0.0
 20
0.0
 30
0.0
  9
$UCSXDIR
 10
1.0
 20
0.0
 30
0.0
  9
$UCSYDIR
 10
0.0
 20
1.0
 30
0.0
  9
$UCSORTHOREF
  2

  9
$UCSORTHOVIEW
 70
     0
  9
$UCSORGTOP
 10
0.0
 20
0.0
 30
0.0
  9
$UCSORGBOTTOM
 10
0.0
 20
0.0
 30
0.0
  9
$UCSORGLEFT
 10
0.0
 20
0.0
 30
0.0
  9
$UCSORGRIGHT
 10
0.0
 20
0.0
 30
0.0
  9
$UCSORGFRONT
 10
0.0
 20
0.0
 30
0.0
  9
$UCSORGBACK
 10
0.0
 20
0.0
 30
0.0
  9
$PUCSBASE
  2

  9
$PUCSNAME
  2

  9
$PUCSORG
 10
0.0
 20
0.0
 30
0.0
  9
$PUCSXDIR
 10
1.0
 20
0.0
 30
0.0
  9
$PUCSYDIR
 10
0.0
 20
1.0
 30
0.0
  9
$PUCSORTHOREF
  2

  9
$PUCSORTHOVIEW
 70
     0
  9
$PUCSORGTOP
 10
0.0
 20
0.0
 30
0.0
  9
$PUCSORGBOTTOM
 10
0.0
 20
0.0
 30
0.0
  9
$PUCSORGLEFT
 10
0.0
 20
0.0
 30
0.0
  9
$PUCSORGRIGHT
 10
0.0
 20
0.0
 30
0.0
  9
$PUCSORGFRONT
 10
0.0
 20
0.0
 30
0.0
  9
$PUCSORGBACK
 10
0.0
 20
0.0
 30
0.0
  9
$USERI1
 70
     0
  9
$USERI2
 70
     0
  9
$USERI3
 70
     0
  9
$USERI4
 70
     0
  9
$USERI5
 70
     0
  9
$USERR1
 40
18.1
  9
$USERR2
 40
0.0
  9
$USERR3
 40
0.0
  9
$USERR4
 40
0.0
  9
$USERR5
 40
0.0
  9
$WORLDVIEW
 70
     1
  9
$SHADEDGE
 70
     3
  9
$SHADEDIF
 70
    70
  9
$TILEMODE
 70
     1
  9
$MAXACTVP
 70
    64
  9
$PINSBASE
 10
0.0
 20
0.0
 30
0.0
  9
$PLIMCHECK
 70
     0
  9
$PEXTMIN
 10
1.00000000000000E+20
 20
1.00000000000000E+20
 30
1.00000000000000E+20
  9
$PEXTMAX
 10
-1.00000000000000E+20
 20
-1.00000000000000E+20
 30
-1.00000000000000E+20
  9
$PLIMMIN
 10
0.0
 20
0.0
  9
$PLIMMAX
 10
12.0
 20
9.0
  9
$UNITMODE
 70
     0
  9
$VISRETAIN
 70
     1
  9
$PLINEGEN
 70
     0
  9
$PSLTSCALE
 70
     1
  9
$TREEDEPTH
 70
  3020
  9
$CMLSTYLE
  2
Standard
  9
$CMLJUST
 70
     0
  9
$CMLSCALE
 40
1.0
  9
$PROXYGRAPHICS
 70
     1
  9
$MEASUREMENT
 70
     1
  9
$CELWEIGHT
370
    -1
  9
$ENDCAPS
280
     0
  9
$JOINSTYLE
280
     0
  9
$LWDISPLAY
290
     0
  9
$INSUNITS
 70
     4
  9
$HYPERLINKBASE
  1

  9
$STYLESHEET
  1

  9
$XEDIT
290
     1
  9
$CEPSNTYPE
380
     0
  9
$PSTYLEMODE
290
     1
  9
$FINGERPRINTGUID
  2
{844B633C-778C-4646-9DBB-9851857FC83C}
  9
$VERSIONGUID
  2
{FAEB1C32-E019-11D5-929B-00C0DF256EC4}
  9
$EXTNAMES
290
     1
  9
$PSVPSCALE
 40
0.0
  9
$OLESTARTUP
290
     0
  0
ENDSEC
  0
SECTION
  2
CLASSES
  0
CLASS
  1
ACDBDICTIONARYWDFLT
  2
AcDbDictionaryWithDefault
  3
ObjectDBX Classes
 90
        0
280
     0
281
     0
  0
CLASS
  1
VISUALSTYLE
  2
AcDbVisualStyle
  3
ObjectDBX Classes
 90
     4095
280
     0
281
     0
  0
CLASS
  1
MATERIAL
  2
AcDbMaterial
  3
ObjectDBX Classes
 90
     1153
280
     0
281
     0
  0
CLASS
  1
DICTIONARYVAR
  2
AcDbDictionaryVar
  3
ObjectDBX Classes
 90
        0
280
     0
281
     0
  0
CLASS
  1
ACDBPLACEHOLDER
  2
AcDbPlaceHolder
  3
ObjectDBX Classes
 90
        0
280
     0
281
     0
  0
CLASS
  1
LAYOUT
  2
AcDbLayout
  3
ObjectDBX Classes
 90
        0
280
     0
281
     0
  0
ENDSEC
  0
SECTION
  2
TABLES
  0
TABLE
  2
VPORT
  5
8
330
0
100
AcDbSymbolTable
 70
     1
  0
VPORT
  5
29
330
8
100
AcDbSymbolTableRecord
100
AcDbViewportTableRecord
  2
*Active
 70
     0
 10
0.0
 20
0.0
 11
1.0
 21
1.0
 12
105.0000000000001
 22
148.5000000000001
 13
0.0
 23
0.0
 14
0.5
 24
0.5
 15
0.5
 25
0.5
 16
0.0
 26
0.0
 36
1.0
 17
0.0
 27
0.0
 37
0.0
 40
326.7000000000002
 41
1.60267857142857
 42
50.0
 43
0.0
 44
0.0
 50
0.0
 51
0.0
 71
     0
 72
   100
 73
     1
 74
     3
 75
     0
 76
     0
 77
     0
 78
     0
281
     0
 65
     1
110
0.0
120
0.0
130
0.0
111
1.0
121
0.0
131
0.0
112
0.0
122
1.0
132
0.0
 79
     0
146
0.0
  0
ENDTAB
  0
TABLE
  2
LTYPE
  5
5
330
0
100
AcDbSymbolTable
 70
     8
  0
LTYPE
  5
14
330
5
100
AcDbSymbolTableRecord
100
AcDbLinetypeTableRecord
  2
ByBlock
 70
     0
  3

 72
    65
 73
     0
 40
0.0
  0
LTYPE
  5
15
330
5
100
AcDbSymbolTableRecord
100
AcDbLinetypeTableRecord
  2
ByLayer
 70
     0
  3

 72
    65
 73
     0
 40
0.0
  0
LTYPE
  5
16
330
5
100
AcDbSymbolTableRecord
100
AcDbLinetypeTableRecord
  2
Continuous
 70
     0
  3
Solid line
 72
    65
 73
     0
 40
0.0
  0
LTYPE
  5
3F
330
5
100
AcDbSymbolTableRecord
100
AcDbLinetypeTableRecord
  2
DASHED
 70
     0
  3
Dashed
 72
    65
 73
     2
 40
15.0
 49
7.0
 74
     0
 49
-8.0
 74
     0
  0
LTYPE
  5
40
330
5
100
AcDbSymbolTableRecord
100
AcDbLinetypeTableRecord
  2
DOTTED
 70
     0
  3
Dotted
 72
    65
 73
     2
 40
1.0
 49
0.0
 74
     0
 49
-1.0
 74
     0
  0
LTYPE
  5
41
330
5
100
AcDbSymbolTableRecord
100
AcDbLinetypeTableRecord
  2
DOT_CENTER
 70
     0
  3
Dot_Center
 72
    65
 73
     4
 40
14.0
 49
12.0
 74
     0
 49
-1.0
 74
     0
 49
0.0
 74
     0
 49
-1.0
 74
     0
  0
LTYPE
  5
42
330
5
100
AcDbSymbolTableRecord
100
AcDbLinetypeTableRecord
  2
LONG_DASHED
 70
     0
  3
Long_Dashed
 72
    65
 73
     2
 40
15.0
 49
10.0
 74
     0
 49
-5.0
 74
     0
  0
LTYPE
  5
43
330
5
100
AcDbSymbolTableRecord
100
AcDbLinetypeTableRecord
  2
DASH_CENTER
 70
     0
  3
Dash_Center
 72
    65
 73
     4
 40
14.0
 49
11.0
 74
     0
 49
-1.0
 74
     0
 49
1.0
 74
     0
 49
-1.0
 74
     0
  0
LTYPE
  5
44
330
5
100
AcDbSymbolTableRecord
100
AcDbLinetypeTableRecord
  2
PHANTOM
 70
     0
  3
Phantom
 72
    65
 73
     6
 40
13.0
 49
10.0
 74
     0
 49
-1.0
 74
     0
 49
0.0
 74
     0
 49
-1.0
 74
     0
 49
0.0
 74
     0
 49
-1.0
 74
     0
  0
LTYPE
  5
45
330
5
100
AcDbSymbolTableRecord
100
AcDbLinetypeTableRecord
  2
CENTER_DASH_DASH
 70
     0
  3
Center_Dash_Dash
 72
    65
 73
     6
 40
14.0
 49
9.0
 74
     0
 49
-1.0
 74
     0
 49
1.0
 74
     0
 49
-1.0
 74
     0
 49
1.0
 74
     0
 49
-1.0
 74
     0
  0
ENDTAB
  0
TABLE
  2
LAYER
  5
2
330
0
100
AcDbSymbolTable
 70
     2
  0
LAYER
  5
10
330
2
100
AcDbSymbolTableRecord
100
AcDbLayerTableRecord
  2
0
 70
     0
 62
     7
  6
Continuous
370
    -3
390
F
  0
LAYER
  5
46
330
2
100
AcDbSymbolTableRecord
100
AcDbLayerTableRecord
  2
1
 70
     0
 62
     7
  6
Continuous
370
    -3
390
F
  0
ENDTAB
  0
TABLE
  2
STYLE
  5
3
330
0
100
AcDbSymbolTable
 70
     4
  0
STYLE
  5
11
330
3
100
AcDbSymbolTableRecord
100
AcDbTextStyleTableRecord
  2
Standard
 70
     0
 40
0.0
 41
1.0
 50
0.0
 71
     0
 42
0.2
  3
txt
  4

  0
STYLE
  5
9B
330
3
100
AcDbSymbolTableRecord
100
AcDbTextStyleTableRecord
  2
CONVERTER_11
 70
     0
 40
0.0
 41
1.2
 50
0.0
 71
     0
 42
0.2
  3
ARIAL.TTF
  4

  0
STYLE
  5
A4
330
3
100
AcDbSymbolTableRecord
100
AcDbTextStyleTableRecord
  2
CONVERTER_12
 70
     0
 40
0.0
 41
1.38
 50
0.0
 71
     0
 42
0.2
  3
ARIAL.TTF
  4

  0
STYLE
  5
252
330
3
100
AcDbSymbolTableRecord
100
AcDbTextStyleTableRecord
  2
CONVERTER_13
 70
     0
 40
0.0
 41
0.95
 50
0.0
 71
     0
 42
0.2
  3
simplex.shx
  4

  0
ENDTAB
  0
TABLE
  2
VIEW
  5
6
330
0
100
AcDbSymbolTable
 70
     0
  0
ENDTAB
  0
TABLE
  2
UCS
  5
7
330
0
100
AcDbSymbolTable
 70
     0
  0
ENDTAB
  0
TABLE
  2
APPID
  5
9
330
0
100
AcDbSymbolTable
 70
     1
  0
APPID
  5
12
330
9
100
AcDbSymbolTableRecord
100
AcDbRegAppTableRecord
  2
ACAD
 70
     0
  0
ENDTAB
  0
TABLE
  2
DIMSTYLE
  5
A
330
0
100
AcDbSymbolTable
 70
     5
100
AcDbDimStyleTable
  0
DIMSTYLE
105
27
330
A
100
AcDbSymbolTableRecord
100
AcDbDimStyleTableRecord
  2
Standard
 70
     0
178
     0
340
11
  0
DIMSTYLE
105
256
102
{ACAD_REACTORS
330
257
102
}
330
A
100
AcDbSymbolTableRecord
100
AcDbDimStyleTableRecord
  2
ME10_DIM_10
 70
     0
 41
3.0
 42
0.5
 44
1.0
 73
     0
 74
     0
 77
     1
 78
     8
140
3.0
147
2.0
172
     1
173
     1
174
     1
175
     1
176
     2
177
     2
271
     2
178
     4
271
     2
340
252
  0
DIMSTYLE
105
261
102
{ACAD_REACTORS
330
262
102
}
330
A
100
AcDbSymbolTableRecord
100
AcDbDimStyleTableRecord
  2
ME10_DIM_11
 70
     0
 41
3.0
 42
0.5
 44
1.0
 73
     0
 74
     0
 77
     1
 78
     8
140
3.0
147
2.0
172
     1
173
     1
174
     1
175
     1
176
     2
177
     2
271
     2
178
     4
271
     2
340
252
  0
DIMSTYLE
105
26C
102
{ACAD_REACTORS
330
26D
102
}
330
A
100
AcDbSymbolTableRecord
100
AcDbDimStyleTableRecord
  2
ME10_DIM_12
 70
     0
 41
3.0
 42
0.5
 44
1.0
 73
     0
 74
     0
 77
     1
 78
     8
140
3.0
147
2.0
172
     1
173
     1
174
     1
175
     1
176
     2
177
     2
271
     2
178
     4
271
     2
340
252
  0
DIMSTYLE
105
277
102
{ACAD_REACTORS
330
278
102
}
330
A
100
AcDbSymbolTableRecord
100
AcDbDimStyleTableRecord
  2
ME10_DIM_13
 70
     0
 41
3.0
 42
0.5
 44
1.0
 73
     0
 74
     0
 77
     1
 78
     8
140
3.0
147
2.0
172
     1
173
     1
174
     1
175
     1
176
     2
177
     2
271
     2
178
     4
271
     2
340
252
  0
ENDTAB
  0
TABLE
  2
BLOCK_RECORD
  5
1
330
0
100
AcDbSymbolTable
 70
     7
  0
BLOCK_RECORD
  5
1F
330
1
100
AcDbSymbolTableRecord
100
AcDbBlockTableRecord
  2
*Model_Space
340
22
  0
BLOCK_RECORD
  5
1B
330
1
100
AcDbSymbolTableRecord
100
AcDbBlockTableRecord
  2
*Paper_Space
340
1E
  0
BLOCK_RECORD
  5
23
330
1
100
AcDbSymbolTableRecord
100
AcDbBlockTableRecord
  2
*Paper_Space0
340
26
  0
BLOCK_RECORD
  5
47
330
1
100
AcDbSymbolTableRecord
100
AcDbBlockTableRecord
  2
_formato_A4
340
0
102
{BLKREFS
331
4B
102
}
  0
BLOCK_RECORD
  5
4A
330
1
100
AcDbSymbolTableRecord
100
AcDbBlockTableRecord
  2
A4
340
0
102
{BLKREFS
331
4E
102
}
  0
BLOCK_RECORD
  5
24C
330
1
100
AcDbSymbolTableRecord
100
AcDbBlockTableRecord
  2
*D3
340
0
  0
BLOCK_RECORD
  5
258
330
1
100
AcDbSymbolTableRecord
100
AcDbBlockTableRecord
  2
*D4
340
0
  0
BLOCK_RECORD
  5
263
330
1
100
AcDbSymbolTableRecord
100
AcDbBlockTableRecord
  2
*D5
340
0
  0
BLOCK_RECORD
  5
26E
330
1
100
AcDbSymbolTableRecord
100
AcDbBlockTableRecord
  2
*D6
340
0
  0
ENDTAB
  0
ENDSEC
  0
SECTION
  2
BLOCKS
  0
BLOCK
  5
20
330
1F
100
AcDbEntity
  8
0
100
AcDbBlockBegin
  2
*Model_Space
 70
     0
 10
0.0
 20
0.0
 30
0.0
  3
*Model_Space
  1

  0
ENDBLK
  5
21
330
1F
100
AcDbEntity
  8
0
100
AcDbBlockEnd
  0
BLOCK
  5
1C
330
1B
100
AcDbEntity
 67
     1
  8
0
100
AcDbBlockBegin
  2
*Paper_Space
 70
     0
 10
0.0
 20
0.0
 30
0.0
  3
*Paper_Space
  1

  0
ENDBLK
  5
1D
330
1B
100
AcDbEntity
 67
     1
  8
0
100
AcDbBlockEnd
  0
BLOCK
  5
24
330
23
100
AcDbEntity
  8
0
100
AcDbBlockBegin
  2
*Paper_Space0
 70
     0
 10
0.0
 20
0.0
 30
0.0
  3
*Paper_Space0
  1

  0
ENDBLK
  5
25
330
23
100
AcDbEntity
  8
0
100
AcDbBlockEnd
  0
BLOCK
  5
48
330
47
100
AcDbEntity
  8
0
100
AcDbBlockBegin
  2
_formato_A4
 70
     0
 10
210.0000000000001
 20
0.0
 30
0.0
  3
_formato_A4
  1

  0
LINE
  5
4F
330
47
100
AcDbEntity
  8
1
  6
Continuous
 62
     7
100
AcDbLine
 10
21.00000000000011
 20
20.0
 30
0.0
 11
205.0000000000001
 21
20.0
 31
0.0
  0
LINE
  5
50
330
47
100
AcDbEntity
  8
1
  6
Continuous
 62
     7
100
AcDbLine
 10
21.00000000000011
 20
4.99999999999989
 30
0.0
 11
205.0000000000001
 21
4.99999999999989
 31
0.0
  0
LINE
  5
51
330
47
100
AcDbEntity
  8
1
  6
Continuous
 62
     7
100
AcDbLine
 10
46.00000000000023
 20
35.0
 30
0.0
 11
46.00000000000023
 21
40.0
 31
0.0
  0
LINE
  5
52
330
47
100
AcDbEntity
  8
1
  6
Continuous
 62
     7
100
AcDbLine
 10
28.00000000000011
 20
35.0
 30
0.0
 11
28.00000000000011
 21
40.0
 31
0.0
  0
LINE
  5
53
330
47
100
AcDbEntity
  8
1
  6
Continuous
 62
     7
100
AcDbLine
 10
21.00000000000011
 20
40.0
 30
0.0
 11
205.0000000000001
 21
40.0
 31
0.0
  0
LINE
  5
54
330
47
100
AcDbEntity
  8
1
  6
Continuous
 62
     7
100
AcDbLine
 10
46.00000000000023
 20
30.0
 30
0.0
 11
46.00000000000023
 21
35.0
 31
0.0
  0
LINE
  5
55
330
47
100
AcDbEntity
  8
1
  6
Continuous
 62
     7
100
AcDbLine
 10
28.00000000000011
 20
30.0
 30
0.0
 11
28.00000000000011
 21
35.0
 31
0.0
  0
LINE
  5
56
330
47
100
AcDbEntity
  8
1
  6
Continuous
 62
     7
100
AcDbLine
 10
21.00000000000011
 20
35.0
 30
0.0
 11
205.0000000000001
 21
35.0
 31
0.0
  0
LINE
  5
57
330
47
100
AcDbEntity
  8
1
  6
Continuous
 62
     7
100
AcDbLine
 10
46.00000000000023
 20
25.0
 30
0.0
 11
46.00000000000023
 21
30.0
 31
0.0
  0
LINE
  5
58
330
47
100
AcDbEntity
  8
1
  6
Continuous
 62
     7
100
AcDbLine
 10
28.00000000000011
 20
25.0
 30
0.0
 11
28.00000000000011
 21
30.0
 31
0.0
  0
LINE
  5
59
330
47
100
AcDbEntity
  8
1
  6
Continuous
 62
     7
100
AcDbLine
 10
21.00000000000011
 20
30.0
 30
0.0
 11
205.0000000000001
 21
30.0
 31
0.0
  0
LINE
  5
5A
330
47
100
AcDbEntity
  8
1
  6
Continuous
 62
     7
100
AcDbLine
 10
46.00000000000023
 20
20.0
 30
0.0
 11
46.00000000000023
 21
25.0
 31
0.0
  0
LINE
  5
5B
330
47
100
AcDbEntity
  8
1
  6
Continuous
 62
     7
100
AcDbLine
 10
28.00000000000011
 20
20.0
 30
0.0
 11
28.00000000000011
 21
25.0
 31
0.0
  0
LINE
  5
5C
330
47
100
AcDbEntity
  8
1
  6
Continuous
 62
     7
100
AcDbLine
 10
21.00000000000011
 20
25.0
 30
0.0
 11
205.0000000000001
 21
25.0
 31
0.0
  0
LINE
  5
5D
102
{ACAD_REACTORS
330
A6
102
}
330
47
100
AcDbEntity
  8
1
  6
Continuous
 62
     7
100
AcDbLine
 10
195.8428748399059
 20
10.55800208038033
 30
0.0
 11
194.5095415065727
 21
9.78877131114973
 31
0.0
  0
LINE
  5
5E
102
{ACAD_REACTORS
330
A6
102
}
330
47
100
AcDbEntity
  8
1
  6
Continuous
 62
     7
100
AcDbLine
 10
194.6763006887428
 20
10.65463653264794
 30
0.0
 11
195.5097265375796
 21
11.13545913774624
 31
0.0
  0
LINE
  5
5F
102
{ACAD_REACTORS
330
A6
102
}
330
47
100
AcDbEntity
  8
1
  6
Continuous
 62
     7
100
AcDbLine
 10
194.6763006887428
 20
12.16666666666663
 30
0.0
 11
194.6763006887428
 21
10.65463653264794
 31
0.0
  0
LINE
  5
60
102
{ACAD_REACTORS
330
A6
102
}
330
47
100
AcDbEntity
  8
1
  6
Continuous
 62
     7
100
AcDbLine
 10
195.6763006887428
 20
12.16666666666663
 30
0.0
 11
194.6763006887428
 21
12.16666666666663
 31
0.0
  0
LINE
  5
61
102
{ACAD_REACTORS
330
A6
102
}
330
47
100
AcDbEntity
  8
1
  6
Continuous
 62
     7
100
AcDbLine
 10
194.6763006887428
 20
12.83333333333326
 30
0.0
 11
195.6763006887428
 21
12.83333333333326
 31
0.0
  0
LINE
  5
62
102
{ACAD_REACTORS
330
A6
102
}
330
47
100
AcDbEntity
  8
1
  6
Continuous
 62
     7
100
AcDbLine
 10
194.6763006887428
 20
14.34536346735194
 30
0.0
 11
194.6763006887428
 21
12.83333333333326
 31
0.0
  0
LINE
  5
63
102
{ACAD_REACTORS
330
A6
102
}
330
47
100
AcDbEntity
  8
1
  6
Continuous
 62
     7
100
AcDbLine
 10
195.5097265375796
 20
13.86454086225376
 30
0.0
 11
194.6763006887428
 21
14.34536346735194
 31
0.0
  0
LINE
  5
64
102
{ACAD_REACTORS
330
A6
102
}
330
47
100
AcDbEntity
  8
1
  6
Continuous
 62
     7
100
AcDbLine
 10
194.5095415065727
 20
15.21122868885027
 30
0.0
 11
195.8428748399059
 21
14.44199791961944
 31
0.0
  0
LINE
  5
65
102
{ACAD_REACTORS
330
A7
102
}
330
47
100
AcDbEntity
  8
1
  6
Continuous
 62
     7
100
AcDbLine
 10
187.3429673554094
 20
10.84673060906323
 30
0.0
 11
187.3429673554094
 21
14.15326939093666
 31
0.0
  0
LINE
  5
66
102
{ACAD_REACTORS
330
A7
102
}
330
47
100
AcDbEntity
  8
1
  6
Continuous
 62
     7
100
AcDbLine
 10
188.0096340220761
 20
11.0392519172633
 30
0.0
 11
188.0096340220761
 21
10.84673060906323
 31
0.0
  0
LINE
  5
67
102
{ACAD_REACTORS
330
A7
102
}
330
47
100
AcDbEntity
  8
1
  6
Continuous
 62
     7
100
AcDbLine
 10
188.0096340220761
 20
14.15326939093666
 30
0.0
 11
188.0096340220761
 21
11.0392519172633
 31
0.0
  0
LINE
  5
68
102
{ACAD_REACTORS
330
A8
102
}
330
47
100
AcDbEntity
  8
1
  6
Continuous
 62
     7
100
AcDbLine
 10
191.1763932042462
 20
8.44261746499581
 30
0.0
 11
189.0098190530831
 21
9.69256409066691
 31
0.0
  0
LINE
  5
69
102
{ACAD_REACTORS
330
A8
102
}
330
47
100
AcDbEntity
  8
1
  6
Continuous
 62
     7
100
AcDbLine
 10
189.3429673554094
 20
10.2700211480327
 30
0.0
 11
191.5095415065727
 21
9.0200745223616
 31
0.0
  0
LINE
  5
6A
102
{ACAD_REACTORS
330
A8
102
}
330
47
100
AcDbEntity
  8
1
  6
Continuous
 62
     7
100
AcDbLine
 10
189.3429673554094
 20
14.92250016016737
 30
0.0
 11
189.3429673554094
 21
10.2700211480327
 31
0.0
  0
LINE
  5
6B
102
{ACAD_REACTORS
330
A8
102
}
330
47
100
AcDbEntity
  8
1
  6
Continuous
 62
     7
100
AcDbLine
 10
188.6763006887428
 20
10.27002114803258
 30
0.0
 11
188.6763006887428
 21
14.92250016016737
 31
0.0
  0
LINE
  5
6C
102
{ACAD_REACTORS
330
A9
102
}
330
47
100
AcDbEntity
  8
1
  6
Continuous
 62
     7
100
AcDbLine
 10
192.8485336717861
 20
15.86370041827229
 30
0.0
 11
191.6763006887428
 21
13.83333333333326
 31
0.0
  0
LINE
  5
6D
102
{ACAD_REACTORS
330
A9
102
}
330
47
100
AcDbEntity
  8
1
  6
Continuous
 62
     7
100
AcDbLine
 10
193.3429673554094
 20
9.3082690706018
 30
0.0
 11
193.3429673554094
 21
15.73121731203457
 31
0.0
  0
LINE
  5
6E
102
{ACAD_REACTORS
330
A9
102
}
330
47
100
AcDbEntity
  8
1
  6
Continuous
 62
     7
100
AcDbLine
 10
192.6763006887428
 20
12.5
 30
0.0
 11
192.6763006887428
 21
9.3082690706018
 31
0.0
  0
LINE
  5
6F
102
{ACAD_REACTORS
330
A9
102
}
330
47
100
AcDbEntity
  8
1
  6
Continuous
 62
     7
100
AcDbLine
 10
190.6763006887428
 20
10.84758507263291
 30
0.0
 11
190.6763006887428
 21
12.5
 31
0.0
  0
LINE
  5
70
102
{ACAD_REACTORS
330
A9
102
}
330
47
100
AcDbEntity
  8
1
  6
Continuous
 62
     7
100
AcDbLine
 10
190.0096340220761
 20
12.5
 30
0.0
 11
190.0096340220761
 21
10.84758507263291
 31
0.0
  0
LINE
  5
71
102
{ACAD_REACTORS
330
A9
102
}
330
47
100
AcDbEntity
  8
1
  6
Continuous
 62
     7
100
AcDbLine
 10
190.5040677056995
 20
15.86370041827229
 30
0.0
 11
191.6763006887428
 21
13.83333333333326
 31
0.0
  0
LINE
  5
72
102
{ACAD_REACTORS
330
A9
102
}
330
47
100
AcDbEntity
  8
1
  6
Continuous
 62
     7
100
AcDbLine
 10
190.0096340220761
 20
12.5
 30
0.0
 11
190.0096340220761
 21
15.73121731203457
 31
0.0
  0
LINE
  5
73
330
47
100
AcDbEntity
  8
1
  6
Continuous
 62
     7
100
AcDbLine
 10
191.6763006887428
 20
7.5
 30
0.0
 11
183.2598654136012
 21
12.35563573565855
 31
0.0
  0
LINE
  5
74
330
47
100
AcDbEntity
  8
1
  6
Continuous
 62
     7
100
AcDbLine
 10
200.0927359638843
 20
12.35563573565855
 30
0.0
 11
191.6763006887428
 21
7.5
 31
0.0
  0
LINE
  5
75
330
47
100
AcDbEntity
  8
1
  6
Continuous
 62
     7
100
AcDbLine
 10
191.6763006887428
 20
17.5
 30
0.0
 11
200.0927359638843
 21
12.64436426434133
 31
0.0
  0
LINE
  5
76
330
47
100
AcDbEntity
  8
1
  6
Continuous
 62
     7
100
AcDbLine
 10
183.2598654136012
 20
12.64436426434133
 30
0.0
 11
191.6763006887428
 21
17.5
 31
0.0
  0
LINE
  5
77
102
{ACAD_REACTORS
330
A9
102
}
330
47
100
AcDbEntity
  8
1
  6
Continuous
 62
     7
100
AcDbLine
 10
190.6763006887428
 20
14.23205080756884
 30
0.0
 11
190.6763006887428
 21
12.5
 31
0.0
  0
LINE
  5
78
102
{ACAD_REACTORS
330
A9
102
}
330
47
100
AcDbEntity
  8
1
  6
Continuous
 62
     7
100
AcDbLine
 10
191.5319631214453
 20
12.75
 30
0.0
 11
190.6763006887428
 21
14.23205080756884
 31
0.0
  0
LINE
  5
79
102
{ACAD_REACTORS
330
A9
102
}
330
47
100
AcDbEntity
  8
1
  6
Continuous
 62
     7
100
AcDbLine
 10
192.6763006887428
 20
14.23205080756884
 30
0.0
 11
191.8206382560402
 21
12.75
 31
0.0
  0
LINE
  5
7A
102
{ACAD_REACTORS
330
A9
102
}
330
47
100
AcDbEntity
  8
1
  6
Continuous
 62
     7
100
AcDbLine
 10
192.6763006887428
 20
12.5
 30
0.0
 11
192.6763006887428
 21
14.23205080756884
 31
0.0
  0
LINE
  5
7B
102
{ACAD_REACTORS
330
A6
102
}
330
47
100
AcDbEntity
  8
1
  6
Continuous
 62
     7
100
AcDbLine
 10
194.0096340220762
 20
10.07749983983263
 30
0.0
 11
194.0096340220762
 21
14.92250016016737
 31
0.0
  0
LINE
  5
7C
330
47
100
AcDbEntity
  8
1
  6
Continuous
 62
     7
100
AcDbLine
 10
21.00000000000011
 20
292.0000000000001
 30
0.0
 11
21.00000000000011
 21
4.99999999999989
 31
0.0
  0
LINE
  5
7D
330
47
100
AcDbEntity
  8
1
  6
Continuous
 62
     7
100
AcDbLine
 10
205.0000000000001
 20
292.0000000000001
 30
0.0
 11
21.00000000000011
 21
292.0000000000001
 31
0.0
  0
LINE
  5
7E
330
47
100
AcDbEntity
  8
1
  6
Continuous
 62
     7
100
AcDbLine
 10
205.0000000000001
 20
4.99999999999989
 30
0.0
 11
205.0000000000001
 21
292.0000000000001
 31
0.0
  0
LINE
  5
7F
330
47
100
AcDbEntity
  8
1
  6
Continuous
 62
     7
100
AcDbLine
 10
210.0000000000001
 20
297.0000000000001
 30
0.0
 11
0.0
 21
297.0000000000001
 31
0.0
  0
LINE
  5
80
330
47
100
AcDbEntity
  8
1
  6
Continuous
 62
     7
100
AcDbLine
 10
0.0
 20
297.0000000000001
 30
0.0
 11
0.0
 21
0.0
 31
0.0
  0
LINE
  5
81
330
47
100
AcDbEntity
  8
1
  6
Continuous
 62
     7
100
AcDbLine
 10
0.0
 20
0.0
 30
0.0
 11
210.0000000000001
 21
0.0
 31
0.0
  0
LINE
  5
82
330
47
100
AcDbEntity
  8
1
  6
Continuous
 62
     7
100
AcDbLine
 10
210.0000000000001
 20
0.0
 30
0.0
 11
210.0000000000001
 21
297.0000000000001
 31
0.0
  0
LINE
  5
83
330
47
100
AcDbEntity
  8
1
  6
Continuous
 62
     7
100
AcDbLine
 10
0.0
 20
148.4999999999998
 30
0.0
 11
15.0
 21
148.4999999999998
 31
0.0
  0
LINE
  5
84
330
47
100
AcDbEntity
  8
1
  6
Continuous
 62
     7
100
AcDbLine
 10
21.00000000000011
 20
9.99999999999986
 30
0.0
 11
51.00000000000011
 21
9.99999999999986
 31
0.0
  0
LINE
  5
85
330
47
100
AcDbEntity
  8
1
  6
Continuous
 62
     7
100
AcDbLine
 10
51.00000000000011
 20
20.0
 30
0.0
 11
51.00000000000011
 21
5.0
 31
0.0
  0
LINE
  5
86
330
47
100
AcDbEntity
  8
1
  6
Continuous
 62
     7
100
AcDbLine
 10
178.3526013774855
 20
20.0
 30
0.0
 11
178.3526013774855
 21
5.0
 31
0.0
  0
LINE
  5
87
330
47
100
AcDbEntity
  8
1
  6
Continuous
 62
     7
100
AcDbLine
 10
161.0000000000001
 20
20.0
 30
0.0
 11
161.0000000000001
 21
5.0
 31
0.0
  0
LINE
  5
88
330
47
100
AcDbEntity
  8
1
  6
Continuous
 62
     7
100
AcDbLine
 10
21.00000000000011
 20
20.0
 30
0.0
 11
21.00000000000011
 21
4.99999999999989
 31
0.0
  0
LINE
  5
89
330
47
100
AcDbEntity
  8
1
  6
Continuous
 62
     7
100
AcDbLine
 10
21.00000000000011
 20
14.99999999999989
 30
0.0
 11
51.00000000000011
 21
14.99999999999989
 31
0.0
  0
ARC
  5
8A
102
{ACAD_REACTORS
330
A6
102
}
330
47
100
AcDbEntity
  8
1
  6
Continuous
 62
     7
100
AcDbCircle
 10
195.6763006887428
 20
10.84673060906323
 30
0.0
 40
0.3333333333333172
100
AcDbArc
 50
299.9816393688334
 51
119.9816393688365
  0
ARC
  5
8B
102
{ACAD_REACTORS
330
A6
102
}
330
47
100
AcDbEntity
  8
1
  6
Continuous
 62
     7
100
AcDbCircle
 10
195.6763006887428
 20
12.5
 30
0.0
 40
0.3333333333333695
100
AcDbArc
 50
270.0
 51
90.0
  0
ARC
  5
8C
102
{ACAD_REACTORS
330
A6
102
}
330
47
100
AcDbEntity
  8
1
  6
Continuous
 62
     7
100
AcDbCircle
 10
195.6763006887428
 20
14.15326939093666
 30
0.0
 40
0.3333333333333613
100
AcDbArc
 50
240.018360631154
 51
60.01836063115638
  0
ARC
  5
8D
102
{ACAD_REACTORS
330
A7
102
}
330
47
100
AcDbEntity
  8
1
  6
Continuous
 62
     7
100
AcDbCircle
 10
187.6763006887428
 20
10.84673060906323
 30
0.0
 40
0.3333333333333997
100
AcDbArc
 50
180.0
 51
0.0
  0
ARC
  5
8E
102
{ACAD_REACTORS
330
A7
102
}
330
47
100
AcDbEntity
  8
1
  6
Continuous
 62
     7
100
AcDbCircle
 10
187.6763006887428
 20
14.15326939093666
 30
0.0
 40
0.3333333333333144
100
AcDbArc
 50
0.0
 51
180.0
  0
ARC
  5
8F
102
{ACAD_REACTORS
330
A8
102
}
330
47
100
AcDbEntity
  8
1
  6
Continuous
 62
     7
100
AcDbCircle
 10
191.3429673554094
 20
8.7313459936787
 30
0.0
 40
0.3333333333333567
100
AcDbArc
 50
240.0183606311536
 51
60.01836063113668
  0
ARC
  5
90
102
{ACAD_REACTORS
330
A8
102
}
330
47
100
AcDbEntity
  8
1
  6
Continuous
 62
     7
100
AcDbCircle
 10
189.0096340220761
 20
14.92250016016737
 30
0.0
 40
0.333333333333286
100
AcDbArc
 50
0.0
 51
180.0
  0
ARC
  5
91
102
{ACAD_REACTORS
330
A9
102
}
330
47
100
AcDbEntity
  8
1
  6
Continuous
 62
     7
100
AcDbCircle
 10
193.0780011429341
 20
15.73121731203457
 30
0.0
 40
0.2649662124752865
100
AcDbArc
 50
0.0
 51
149.9999999999716
  0
ARC
  5
92
102
{ACAD_REACTORS
330
A9
102
}
330
47
100
AcDbEntity
  8
1
  6
Continuous
 62
     7
100
AcDbCircle
 10
193.0096340220762
 20
9.3082690706018
 30
0.0
 40
0.3333333333333997
100
AcDbArc
 50
180.0
 51
0.0
  0
ARC
  5
93
102
{ACAD_REACTORS
330
A9
102
}
330
47
100
AcDbEntity
  8
1
  6
Continuous
 62
     7
100
AcDbCircle
 10
190.3429673554094
 20
10.84758507263291
 30
0.0
 40
0.333333333333286
100
AcDbArc
 50
180.0
 51
0.0
  0
ARC
  5
94
102
{ACAD_REACTORS
330
A9
102
}
330
47
100
AcDbEntity
  8
1
  6
Continuous
 62
     7
100
AcDbCircle
 10
190.2746002345514
 20
15.73121731203457
 30
0.0
 40
0.2649662124752854
100
AcDbArc
 50
30.00000000001921
 51
180.0
  0
ARC
  5
95
102
{ACAD_REACTORS
330
A6
102
}
330
47
100
AcDbEntity
  8
1
  6
Continuous
 62
     7
100
AcDbCircle
 10
194.3429673554094
 20
10.07749983983263
 30
0.0
 40
0.3333333333332007
100
AcDbArc
 50
180.0
 51
299.981639368863
  0
ARC
  5
96
102
{ACAD_REACTORS
330
A6
102
}
330
47
100
AcDbEntity
  8
1
  6
Continuous
 62
     7
100
AcDbCircle
 10
194.3429673554094
 20
14.92250016016737
 30
0.0
 40
0.3333333333334166
100
AcDbArc
 50
60.01836063113698
 51
180.0
  0
ARC
  5
97
330
47
100
AcDbEntity
  8
1
  6
Continuous
 62
     7
100
AcDbCircle
 10
200.0094488883027
 20
12.5
 30
0.0
 40
0.166666666666687
100
AcDbArc
 50
299.9816393688503
 51
60.01836063112923
  0
ARC
  5
98
330
47
100
AcDbEntity
  8
1
  6
Continuous
 62
     7
100
AcDbCircle
 10
183.3431524891829
 20
12.5
 30
0.0
 40
0.1666666666666265
100
AcDbArc
 50
119.9816393688962
 51
240.0183606311243
  0
ARC
  5
99
102
{ACAD_REACTORS
330
A8
102
}
330
47
100
AcDbEntity
  8
1
  6
Continuous
 62
     7
100
AcDbCircle
 10
189.3429673554094
 20
10.2700211480327
 30
0.0
 40
0.6666666666666003
100
AcDbArc
 50
180.0000000000104
 51
240.0183606311601
  0
ARC
  5
9A
102
{ACAD_REACTORS
330
A9
102
}
330
47
100
AcDbEntity
  8
1
  6
Continuous
 62
     7
100
AcDbCircle
 10
191.6763006887428
 20
12.83333333333326
 30
0.0
 40
0.166666666666709
100
AcDbArc
 50
209.9999999999622
 51
330.0000000000231
  0
MTEXT
  5
9C
330
47
100
AcDbEntity
  8
1
 62
     7
100
AcDbMText
 10
169.6763006887428
 20
10.06063942075605
 30
0.0
 40
4.5
 41
0.0
 71
     5
 72
     1
  1
1:1
  7
CONVERTER_11
 73
     1
 44
1.32052821128451
  0
MTEXT
  5
9D
330
47
100
AcDbEntity
  8
1
 62
     7
100
AcDbMText
 10
169.6763006887428
 20
16.26063942075598
 30
0.0
 40
3.0
 41
0.0
 71
     5
 72
     1
  1
Scale
  7
CONVERTER_11
 73
     1
 44
1.32052821128451
  0
MTEXT
  5
9E
330
47
100
AcDbEntity
  8
1
 62
     7
100
AcDbMText
 10
57.27630068874282
 20
12.5
 30
0.0
 40
4.5
 41
0.0
 71
     4
 72
     1
  1
CKA 03 VS\PMetal hood top entry PG11
  7
CONVERTER_11
 73
     1
 44
0.90036014405762
  0
MTEXT
  5
9F
330
47
100
AcDbEntity
  8
1
 62
     7
100
AcDbMText
 10
32.60000000000011
 20
7.49999999999987
 30
0.0
 40
3.0
 41
0.0
 71
     4
 72
     1
  1
Radice
  7
CONVERTER_11
 73
     1
 44
1.32052821128451
  0
MTEXT
  5
A0
330
47
100
AcDbEntity
  8
1
 62
     7
100
AcDbMText
 10
22.00000000000011
 20
7.49999999999987
 30
0.0
 40
3.0
 41
0.0
 71
     4
 72
     1
  1
Sign.
  7
CONVERTER_11
 73
     1
 44
1.32052821128451
  0
MTEXT
  5
A1
330
47
100
AcDbEntity
  8
1
 62
     7
100
AcDbMText
 10
32.60000000000011
 20
12.49999999999987
 30
0.0
 40
3.0
 41
0.0
 71
     4
 72
     1
  1
28/01/14
  7
CONVERTER_11
 73
     1
 44
1.32052821128451
  0
MTEXT
  5
A2
330
47
100
AcDbEntity
  8
1
 62
     7
100
AcDbMText
 10
22.00000000000011
 20
12.49999999999987
 30
0.0
 40
3.0
 41
0.0
 71
     4
 72
     1
  1
Date
  7
CONVERTER_11
 73
     1
 44
1.32052821128451
  0
MTEXT
  5
A3
330
47
100
AcDbEntity
  8
1
 62
     7
100
AcDbMText
 10
16.0
 20
151.4999999999998
 30
0.0
 40
4.0
 41
0.0
 71
     5
 72
     1
  1
Diritti riservati      All rights reserved
  7
CONVERTER_11
 11
0.0
 21
1.0
 31
0.0
 73
     1
 44
1.32052821128451
  0
MTEXT
  5
A5
330
47
100
AcDbEntity
  8
1
 62
     7
100
AcDbMText
 10
36.00000000000011
 20
17.49999999999994
 30
0.0
 40
2.5
 41
0.0
 71
     5
 72
     1
  1
dimensions in mm
  7
CONVERTER_12
 73
     1
 44
0.60024009603842
  0
HATCH
  5
A6
330
47
100
AcDbEntity
  8
1
  6
Continuous
 62
     7
100
AcDbHatch
 10
0.0
 20
0.0
 30
0.0
210
0.0
220
0.0
230
1.0
  2
SOLID
 70
     1
 71
     1
 91
        1
 92
        1
 93
       14
 72
     2
 10
194.3429673554094
 20
14.92250016016737
 40
0.3333333333334166
 50
60.01836063113698
 51
180.0
 73
     1
 72
     1
 10
194.0096340220762
 20
14.92250016016737
 11
194.0096340220762
 21
10.07749983983263
 72
     2
 10
194.3429673554094
 20
10.07749983983263
 40
0.3333333333332007
 50
180.0
 51
299.981639368863
 73
     1
 72
     1
 10
194.5095415065727
 20
9.78877131114973
 11
195.8428748399059
 21
10.55800208038033
 72
     2
 10
195.6763006887428
 20
10.84673060906323
 40
0.3333333333333172
 50
299.9816393688334
 51
479.9816393688365
 73
     1
 72
     1
 10
195.5097265375796
 20
11.13545913774624
 11
194.6763006887428
 21
10.65463653264794
 72
     1
 10
194.6763006887428
 20
10.65463653264794
 11
194.6763006887428
 21
12.16666666666663
 72
     1
 10
194.6763006887428
 20
12.16666666666663
 11
195.6763006887428
 21
12.16666666666663
 72
     2
 10
195.6763006887428
 20
12.5
 40
0.3333333333333695
 50
270.0
 51
450.0
 73
     1
 72
     1
 10
195.6763006887428
 20
12.83333333333326
 11
194.6763006887428
 21
12.83333333333326
 72
     1
 10
194.6763006887428
 20
12.83333333333326
 11
194.6763006887428
 21
14.34536346735194
 72
     1
 10
194.6763006887428
 20
14.34536346735194
 11
195.5097265375796
 21
13.86454086225376
 72
     2
 10
195.6763006887428
 20
14.15326939093666
 40
0.3333333333333613
 50
240.018360631154
 51
420.0183606311564
 73
     1
 72
     1
 10
195.8428748399059
 20
14.44199791961944
 11
194.5095415065727
 21
15.21122868885027
 97
       14
330
8C
330
63
330
62
330
61
330
8B
330
60
330
5F
330
5E
330
8A
330
5D
330
95
330
7B
330
96
330
64
 75
     0
 76
     1
 98
        1
 10
0.0
 20
0.0
  0
HATCH
  5
A7
330
47
100
AcDbEntity
  8
1
  6
Continuous
 62
     7
100
AcDbHatch
 10
0.0
 20
0.0
 30
0.0
210
0.0
220
0.0
230
1.0
  2
SOLID
 70
     1
 71
     1
 91
        1
 92
        1
 93
        5
 72
     2
 10
187.6763006887428
 20
14.15326939093666
 40
0.3333333333333144
 50
0.0
 51
180.0
 73
     1
 72
     1
 10
187.3429673554094
 20
14.15326939093666
 11
187.3429673554094
 21
10.84673060906323
 72
     2
 10
187.6763006887428
 20
10.84673060906323
 40
0.3333333333333997
 50
180.0
 51
360.0
 73
     1
 72
     1
 10
188.0096340220761
 20
10.84673060906323
 11
188.0096340220761
 21
11.0392519172633
 72
     1
 10
188.0096340220761
 20
11.0392519172633
 11
188.0096340220761
 21
14.15326939093666
 97
        5
330
8E
330
65
330
8D
330
66
330
67
 75
     0
 76
     1
 98
        1
 10
0.0
 20
0.0
  0
HATCH
  5
A8
330
47
100
AcDbEntity
  8
1
  6
Continuous
 62
     7
100
AcDbHatch
 10
0.0
 20
0.0
 30
0.0
210
0.0
220
0.0
230
1.0
  2
SOLID
 70
     1
 71
     1
 91
        1
 92
        1
 93
        7
 72
     2
 10
189.0096340220761
 20
14.92250016016737
 40
0.333333333333286
 50
0.0
 51
180.0
 73
     1
 72
     1
 10
188.6763006887428
 20
14.92250016016737
 11
188.6763006887428
 21
10.27002114803258
 72
     2
 10
189.3429673554094
 20
10.2700211480327
 40
0.6666666666666003
 50
180.0000000000104
 51
240.0183606311601
 73
     1
 72
     1
 10
189.0098190530831
 20
9.692564090666906
 11
191.1763932042462
 21
8.442617464995806
 72
     2
 10
191.3429673554094
 20
8.731345993678701
 40
0.3333333333333567
 50
240.0183606311536
 51
420.0183606311367
 73
     1
 72
     1
 10
191.5095415065727
 20
9.020074522361597
 11
189.3429673554094
 21
10.2700211480327
 72
     1
 10
189.3429673554094
 20
10.2700211480327
 11
189.3429673554094
 21
14.92250016016737
 97
        7
330
90
330
6B
330
99
330
68
330
8F
330
69
330
6A
 75
     0
 76
     1
 98
        1
 10
0.0
 20
0.0
  0
HATCH
  5
A9
330
47
100
AcDbEntity
  8
1
  6
Continuous
 62
     7
100
AcDbHatch
 10
0.0
 20
0.0
 30
0.0
210
0.0
220
0.0
230
1.0
  2
SOLID
 70
     1
 71
     1
 91
        1
 92
        1
 93
       16
 72
     2
 10
193.0780011429341
 20
15.73121731203457
 40
0.2649662124752865
 50
210.0000000000284
 51
360.0
 73
     0
 72
     1
 10
193.3429673554094
 20
15.73121731203457
 11
193.3429673554094
 21
9.308269070601796
 72
     2
 10
193.0096340220762
 20
9.308269070601796
 40
0.3333333333333997
 50
0.0
 51
180.0
 73
     0
 72
     1
 10
192.6763006887428
 20
9.308269070601796
 11
192.6763006887428
 21
12.5
 72
     1
 10
192.6763006887428
 20
12.5
 11
192.6763006887428
 21
14.23205080756884
 72
     1
 10
192.6763006887428
 20
14.23205080756884
 11
191.8206382560402
 21
12.75
 72
     2
 10
191.6763006887428
 20
12.83333333333326
 40
0.166666666666709
 50
29.99999999997686
 51
150.0000000000378
 73
     0
 72
     1
 10
191.5319631214453
 20
12.75
 11
190.6763006887428
 21
14.23205080756884
 72
     1
 10
190.6763006887428
 20
14.23205080756884
 11
190.6763006887428
 21
12.5
 72
     1
 10
190.6763006887428
 20
12.5
 11
190.6763006887428
 21
10.84758507263291
 72
     2
 10
190.3429673554094
 20
10.84758507263291
 40
0.333333333333286
 50
0.0
 51
180.0
 73
     0
 72
     1
 10
190.0096340220761
 20
10.84758507263291
 11
190.0096340220761
 21
12.5
 72
     1
 10
190.0096340220761
 20
12.5
 11
190.0096340220761
 21
15.73121731203457
 72
     2
 10
190.2746002345514
 20
15.73121731203457
 40
0.2649662124752854
 50
180.0
 51
329.9999999999808
 73
     0
 72
     1
 10
190.5040677056995
 20
15.86370041827229
 11
191.6763006887428
 21
13.83333333333326
 72
     1
 10
191.6763006887428
 20
13.83333333333326
 11
192.8485336717861
 21
15.86370041827229
 97
       16
330
71
330
94
330
72
330
70
330
93
330
6F
330
77
330
78
330
9A
330
79
330
7A
330
6E
330
92
330
6D
330
91
330
6C
 75
     0
 76
     1
 98
        1
 10
0.0
 20
0.0
  0
ENDBLK
  5
49
330
47
100
AcDbEntity
  8
0
100
AcDbBlockEnd
  0
BLOCK
  5
4C
330
4A
100
AcDbEntity
  8
0
100
AcDbBlockBegin
  2
A4
 70
     0
 10
210.0000000000001
 20
0.0
 30
0.0
  3
A4
  1

  0
INSERT
  5
4B
330
4A
100
AcDbEntity
  8
1
100
AcDbBlockReference
  2
_formato_A4
 10
210.0000000000001
 20
0.0
 30
0.0
  0
ENDBLK
  5
4D
330
4A
100
AcDbEntity
  8
0
100
AcDbBlockEnd
  0
BLOCK
  5
254
330
24C
100
AcDbEntity
  8
0
100
AcDbBlockBegin
  2
*D3
 70
     1
 10
0.0
 20
0.0
 30
0.0
  3
*D3
  1

  0
LINE
  5
24D
330
24C
100
AcDbEntity
  8
1
  6
Continuous
 62
     2
100
AcDbLine
 10
59.16875473980707
 20
125.7888648865113
 30
0.0
 11
59.16875473980707
 21
186.2888648865113
 31
0.0
  0
LINE
  5
24E
330
24C
100
AcDbEntity
  8
1
  6
Continuous
 62
     2
100
AcDbLine
 10
70.91875473980707
 20
186.2888648865113
 30
0.0
 11
58.16875473980707
 21
186.2888648865113
 31
0.0
  0
LINE
  5
24F
330
24C
100
AcDbEntity
  8
1
  6
Continuous
 62
     2
100
AcDbLine
 10
68.66875473980707
 20
125.7888648865113
 30
0.0
 11
58.16875473980707
 21
125.7888648865113
 31
0.0
  0
SOLID
  5
250
330
24C
100
AcDbEntity
  8
1
 62
     2
100
AcDbTrace
 10
58.77379724704488
 20
128.7888648865113
 30
0.0
 11
59.56371223256926
 21
128.7888648865113
 31
0.0
 12
59.16875473980707
 22
125.7888648865113
 32
0.0
 13
59.16875473980707
 23
125.7888648865113
 33
0.0
  0
SOLID
  5
251
330
24C
100
AcDbEntity
  8
1
 62
     2
100
AcDbTrace
 10
59.56371223256926
 20
183.2888648865113
 30
0.0
 11
58.77379724704488
 21
183.2888648865113
 31
0.0
 12
59.16875473980707
 22
186.2888648865113
 32
0.0
 13
59.16875473980707
 23
186.2888648865113
 33
0.0
  0
MTEXT
  5
253
330
24C
100
AcDbEntity
  8
1
 62
     4
100
AcDbMText
 10
56.86875473980709
 20
151.9138648865113
 30
0.0
 40
3.0
 41
0.0
 71
     7
 72
     1
  1
60,5
  7
CONVERTER_13
 11
0.0
 21
1.0
 31
0.0
 73
     1
 44
0.60024009603842
  0
ENDBLK
  5
255
330
24C
100
AcDbEntity
  8
0
100
AcDbBlockEnd
  0
BLOCK
  5
25F
330
258
100
AcDbEntity
  8
0
100
AcDbBlockBegin
  2
*D4
 70
     1
 10
0.0
 20
0.0
 30
0.0
  3
*D4
  1

  0
LINE
  5
259
330
258
100
AcDbEntity
  8
1
  6
Continuous
 62
     2
100
AcDbLine
 10
138.3187538830358
 20
196.2888648865113
 30
0.0
 11
156.3187538830358
 21
196.2888648865113
 31
0.0
  0
LINE
  5
25A
330
258
100
AcDbEntity
  8
1
  6
Continuous
 62
     2
100
AcDbLine
 10
156.3187538830358
 20
186.7921896467143
 30
0.0
 11
156.3187538830358
 21
197.2888648865113
 31
0.0
  0
LINE
  5
25B
330
258
100
AcDbEntity
  8
1
  6
Continuous
 62
     2
100
AcDbLine
 10
138.3187538830358
 20
186.7921896467143
 30
0.0
 11
138.3187538830358
 21
197.2888648865113
 31
0.0
  0
SOLID
  5
25C
330
258
100
AcDbEntity
  8
1
 62
     2
100
AcDbTrace
 10
141.3187538830358
 20
196.6838223792735
 30
0.0
 11
141.3187538830358
 21
195.8939073937491
 31
0.0
 12
138.3187538830358
 22
196.2888648865113
 32
0.0
 13
138.3187538830358
 23
196.2888648865113
 33
0.0
  0
SOLID
  5
25D
330
258
100
AcDbEntity
  8
1
 62
     2
100
AcDbTrace
 10
153.3187538830358
 20
195.8939073937491
 30
0.0
 11
153.3187538830358
 21
196.6838223792735
 31
0.0
 12
156.3187538830358
 22
196.2888648865113
 32
0.0
 13
156.3187538830358
 23
196.2888648865113
 33
0.0
  0
MTEXT
  5
25E
330
258
100
AcDbEntity
  8
1
 62
     4
100
AcDbMText
 10
143.1187538830358
 20
198.2888648865113
 30
0.0
 40
3.0
 41
0.0
 71
     7
 72
     1
  1
PG11
  7
CONVERTER_13
 11
0.9999999999970619
 21
2.424068405545306E-6
 31
0.0
 73
     1
 44
0.60024009603842
  0
ENDBLK
  5
260
330
258
100
AcDbEntity
  8
0
100
AcDbBlockEnd
  0
BLOCK
  5
26A
330
263
100
AcDbEntity
  8
0
100
AcDbBlockBegin
  2
*D5
 70
     1
 10
0.0
 20
0.0
 30
0.0
  3
*D5
  1

  0
LINE
  5
264
330
263
100
AcDbEntity
  8
1
  6
Continuous
 62
     2
100
AcDbLine
 10
69.16875473980707
 20
110.7888648865113
 30
0.0
 11
96.16875473980707
 21
110.7888648865113
 31
0.0
  0
LINE
  5
265
330
263
100
AcDbEntity
  8
1
  6
Continuous
 62
     2
100
AcDbLine
 10
96.16875473980707
 20
125.2888648865113
 30
0.0
 11
96.16875473980707
 21
109.7888648865113
 31
0.0
  0
LINE
  5
266
330
263
100
AcDbEntity
  8
1
  6
Continuous
 62
     2
100
AcDbLine
 10
69.16875473980707
 20
125.2888648865113
 30
0.0
 11
69.16875473980707
 21
109.7888648865113
 31
0.0
  0
SOLID
  5
267
330
263
100
AcDbEntity
  8
1
 62
     2
100
AcDbTrace
 10
72.16875473980707
 20
111.1838223792735
 30
0.0
 11
72.16875473980707
 21
110.3939073937491
 31
0.0
 12
69.16875473980707
 22
110.7888648865113
 32
0.0
 13
69.16875473980707
 23
110.7888648865113
 33
0.0
  0
SOLID
  5
268
330
263
100
AcDbEntity
  8
1
 62
     2
100
AcDbTrace
 10
93.16875473980707
 20
110.3939073937491
 30
0.0
 11
93.16875473980707
 21
111.1838223792735
 31
0.0
 12
96.16875473980707
 22
110.7888648865113
 32
0.0
 13
96.16875473980707
 23
110.7888648865113
 33
0.0
  0
MTEXT
  5
269
330
263
100
AcDbEntity
  8
1
 62
     4
100
AcDbMText
 10
80.41875473980707
 20
112.7888648865113
 30
0.0
 40
3.0
 41
0.0
 71
     7
 72
     1
  1
27
  7
CONVERTER_13
 11
0.9999999999970619
 21
2.424068405545306E-6
 31
0.0
 73
     1
 44
0.60024009603842
  0
ENDBLK
  5
26B
330
263
100
AcDbEntity
  8
0
100
AcDbBlockEnd
  0
BLOCK
  5
275
330
26E
100
AcDbEntity
  8
0
100
AcDbBlockBegin
  2
*D6
 70
     1
 10
0.0
 20
0.0
 30
0.0
  3
*D6
  1

  0
LINE
  5
26F
330
26E
100
AcDbEntity
  8
1
  6
Continuous
 62
     2
100
AcDbLine
 10
130.5687538830358
 20
110.7888648865113
 30
0.0
 11
164.0687538830358
 21
110.7888648865113
 31
0.0
  0
LINE
  5
270
330
26E
100
AcDbEntity
  8
1
  6
Continuous
 62
     2
100
AcDbLine
 10
164.0687538830358
 20
133.6976348618867
 30
0.0
 11
164.0687538830358
 21
109.7888648865113
 31
0.0
  0
LINE
  5
271
330
26E
100
AcDbEntity
  8
1
  6
Continuous
 62
     2
100
AcDbLine
 10
130.5687538830358
 20
133.6976348618867
 30
0.0
 11
130.5687538830358
 21
109.7888648865113
 31
0.0
  0
SOLID
  5
272
330
26E
100
AcDbEntity
  8
1
 62
     2
100
AcDbTrace
 10
133.5687538830358
 20
111.1838223792735
 30
0.0
 11
133.5687538830358
 21
110.3939073937491
 31
0.0
 12
130.5687538830358
 22
110.7888648865113
 32
0.0
 13
130.5687538830358
 23
110.7888648865113
 33
0.0
  0
SOLID
  5
273
330
26E
100
AcDbEntity
  8
1
 62
     2
100
AcDbTrace
 10
161.0687538830358
 20
110.3939073937491
 30
0.0
 11
161.0687538830358
 21
111.1838223792735
 31
0.0
 12
164.0687538830358
 22
110.7888648865113
 32
0.0
 13
164.0687538830358
 23
110.7888648865113
 33
0.0
  0
MTEXT
  5
274
330
26E
100
AcDbEntity
  8
1
 62
     4
100
AcDbMText
 10
143.1937538830358
 20
113.0888648865113
 30
0.0
 40
3.0
 41
0.0
 71
     7
 72
     1
  1
33,5
  7
CONVERTER_13
 11
0.9999999999970619
 21
2.424068405545306E-6
 31
0.0
 73
     1
 44
0.60024009603842
  0
ENDBLK
  5
276
330
26E
100
AcDbEntity
  8
0
100
AcDbBlockEnd
  0
ENDSEC
  0
SECTION
  2
ENTITIES
  0
INSERT
  5
4E
330
1F
100
AcDbEntity
  8
0
100
AcDbBlockReference
  2
A4
 10
210.0000000000001
 20
0.0
 30
0.0
  0
LINE
  5
AA
330
1F
100
AcDbEntity
  8
1
  6
Continuous
 62
     4
100
AcDbLine
 10
77.0465414027841
 20
112.7888648865113
 30
0.0
 11
78.5465414027841
 21
115.7888648865113
 31
0.0
  0
LINE
  5
AB
330
1F
100
AcDbEntity
  8
1
  6
Continuous
 62
     4
100
AcDbLine
 10
78.7965414027841
 20
115.2888648865113
 30
0.0
 11
76.7965414027841
 21
115.2888648865113
 31
0.0
  0
LINE
  5
AC
330
1F
100
AcDbEntity
  8
1
  6
Continuous
 62
     4
100
AcDbLine
 10
78.7965414027841
 20
113.2888648865113
 30
0.0
 11
78.7965414027841
 21
115.2888648865113
 31
0.0
  0
LINE
  5
AD
330
1F
100
AcDbEntity
  8
1
  6
Continuous
 62
     4
100
AcDbLine
 10
76.7965414027841
 20
113.2888648865113
 30
0.0
 11
78.7965414027841
 21
113.2888648865113
 31
0.0
  0
LINE
  5
AE
330
1F
100
AcDbEntity
  8
1
  6
Continuous
 62
     4
100
AcDbLine
 10
76.7965414027841
 20
115.2888648865113
 30
0.0
 11
76.7965414027841
 21
113.2888648865113
 31
0.0
  0
LINE
  5
AF
330
1F
100
AcDbEntity
  8
0
  6
Continuous
 62
     2
100
AcDbLine
 10
189.4139368243899
 20
249.3655356594179
 30
0.0
 11
189.6260688587458
 21
249.2594696422399
 31
0.0
  0
LINE
  5
B0
330
1F
100
AcDbEntity
  8
0
  6
Continuous
 62
     7
100
AcDbLine
 10
189.4233224703826
 20
249.3622966495482
 30
0.0
 11
189.6354545047385
 21
249.2562306323702
 31
0.0
  0
LINE
  5
B1
330
1F
100
AcDbEntity
  8
0
  6
Continuous
 62
     7
100
AcDbLine
 10
182.6613223263842
 20
245.7020825038681
 30
0.0
 11
186.0552777848637
 21
249.7971734301295
 31
0.0
  0
LINE
  5
B2
330
1F
100
AcDbEntity
  8
0
  6
Continuous
 62
     7
100
AcDbLine
 10
186.0552777848637
 20
249.9971364444611
 30
0.0
 11
182.4844867109815
 21
245.6886785683577
 31
0.0
  0
LINE
  5
B3
330
1F
100
AcDbEntity
  8
0
  6
Continuous
 62
     7
100
AcDbLine
 10
185.8431457505077
 20
245.107013053264
 30
0.0
 11
182.7053673791955
 21
245.755226541355
 31
0.0
  0
LINE
  5
B4
330
1F
100
AcDbEntity
  8
0
  6
Continuous
 62
     7
100
AcDbLine
 10
185.8431457505077
 20
250.1032024616391
 30
0.0
 11
182.2723546766256
 21
245.7947445855357
 31
0.0
  0
LINE
  5
B5
330
1F
100
AcDbEntity
  8
0
  6
Continuous
 62
     7
100
AcDbLine
 10
184.8557413156535
 20
248.3498324231904
 30
0.0
 11
185.0133496540651
 21
248.2710282539846
 31
0.0
  0
LINE
  5
B6
330
1F
100
AcDbEntity
  8
0
  6
Continuous
 62
     2
100
AcDbLine
 10
184.6418472184993
 20
248.0917513177803
 30
0.0
 11
184.7824855787279
 21
248.021432137666
 31
0.0
  0
LINE
  5
B7
330
1F
100
AcDbEntity
  8
0
  6
Continuous
 62
     7
100
AcDbLine
 10
184.5703535443719
 20
248.0054882245294
 30
0.0
 11
184.5703535443719
 21
245.7099991457944
 31
0.0
  0
LINE
  5
B8
330
1F
100
AcDbEntity
  8
0
  6
Continuous
 62
     7
100
AcDbLine
 10
184.0046681194227
 20
247.3229414795389
 30
0.0
 11
184.0046681194227
 21
245.7268234596329
 31
0.0
  0
LINE
  5
B9
330
1F
100
AcDbEntity
  8
0
  6
Continuous
 62
     7
100
AcDbLine
 10
184.4996428662532
 20
245.7621787986923
 30
0.0
 11
184.4996428662532
 21
247.4803067489129
 31
0.0
  0
LINE
  5
BA
330
1F
100
AcDbEntity
  8
0
  6
Continuous
 62
     2
100
AcDbLine
 10
184.0761617935501
 20
247.4092045727898
 30
0.0
 11
184.2168001537785
 21
247.3388853926755
 31
0.0
  0
LINE
  5
BB
330
1F
100
AcDbEntity
  8
0
  6
Continuous
 62
     7
100
AcDbLine
 10
184.2900558907044
 20
247.6672856782
 30
0.0
 11
184.447664229116
 21
247.5884815089942
 31
0.0
  0
LINE
  5
BC
330
1F
100
AcDbEntity
  8
0
  6
Continuous
 62
     7
100
AcDbLine
 10
185.6310137161518
 20
247.8490602331078
 30
0.0
 11
185.7819085069382
 21
247.6044114390686
 31
0.0
  0
LINE
  5
BD
330
1F
100
AcDbEntity
  8
0
  6
Continuous
 62
     2
100
AcDbLine
 10
182.2723546766256
 20
245.7947445855357
 30
0.0
 11
182.4844867109815
 21
245.6886785683577
 31
0.0
  0
LINE
  5
BE
330
1F
100
AcDbEntity
  8
0
  6
Continuous
 62
     7
100
AcDbLine
 10
185.3895794603824
 20
248.9939527628105
 30
0.0
 11
185.5316845425933
 21
248.922900221705
 31
0.0
  0
LINE
  5
BF
330
1F
100
AcDbEntity
  8
0
  6
Continuous
 62
     2
100
AcDbLine
 10
185.219555334001
 20
248.7888044437746
 30
0.0
 11
185.3481710036772
 21
248.7244966089365
 31
0.0
  0
LINE
  5
C0
330
1F
100
AcDbEntity
  8
0
  6
Continuous
 62
     7
100
AcDbLine
 10
185.6310137161518
 20
246.3283082159363
 30
0.0
 11
185.6310137161518
 21
248.0869281987518
 31
0.0
  0
LINE
  5
C1
330
1F
100
AcDbEntity
  8
0
  6
Continuous
 62
     2
100
AcDbLine
 10
185.1360389693211
 20
246.292952876877
 30
0.0
 11
185.3481710036771
 21
246.186886859699
 31
0.0
  0
LINE
  5
C2
330
1F
100
AcDbEntity
  8
0
  6
Continuous
 62
     7
100
AcDbLine
 10
185.1880176064585
 20
246.1847781167957
 30
0.0
 11
185.4001496408145
 21
246.0787120996177
 31
0.0
  0
LINE
  5
C3
330
1F
100
AcDbEntity
  8
0
  6
Continuous
 62
     7
100
AcDbLine
 10
185.0653282912025
 20
245.7453544848537
 30
0.0
 11
185.0653282912025
 21
248.1628534939033
 31
0.0
  0
LINE
  5
C4
330
1F
100
AcDbEntity
  8
0
  6
Continuous
 62
     7
100
AcDbLine
 10
185.3481710036772
 20
248.7244966089365
 30
0.0
 11
185.3481710036771
 21
246.186886859699
 31
0.0
  0
LINE
  5
C5
330
1F
100
AcDbEntity
  8
0
  6
Continuous
 62
     7
100
AcDbLine
 10
185.1360389693211
 20
248.6880349695199
 30
0.0
 11
185.1360389693211
 21
246.292952876877
 31
0.0
  0
LINE
  5
C6
330
1F
100
AcDbEntity
  8
0
  6
Continuous
 62
     7
100
AcDbLine
 10
185.7723958213852
 20
245.6615289655776
 30
0.0
 11
185.0653282912025
 21
245.8075975070162
 31
0.0
  0
LINE
  5
C7
330
1F
100
AcDbEntity
  8
0
  6
Continuous
 62
     7
100
AcDbLine
 10
184.05664675656
 20
245.6186486995516
 30
0.0
 11
184.2687787909159
 21
245.5125826823736
 31
0.0
  0
LINE
  5
C8
330
1F
100
AcDbEntity
  8
0
  6
Continuous
 62
     2
100
AcDbLine
 10
184.0046681194227
 20
245.7268234596329
 30
0.0
 11
184.2168001537787
 21
245.620757442455
 31
0.0
  0
LINE
  5
C9
330
1F
100
AcDbEntity
  8
0
  6
Continuous
 62
     7
100
AcDbLine
 10
184.7824855787279
 20
248.021432137666
 30
0.0
 11
184.7824855787279
 21
245.6039331286164
 31
0.0
  0
LINE
  5
CA
330
1F
100
AcDbEntity
  8
0
  6
Continuous
 62
     7
100
AcDbLine
 10
182.2629690306329
 20
245.6479558510235
 30
0.0
 11
182.475101064989
 21
245.5418898338455
 31
0.0
  0
LINE
  5
CB
330
1F
100
AcDbEntity
  8
0
  6
Continuous
 62
     2
100
AcDbLine
 10
184.5703535443719
 20
245.7099991457944
 30
0.0
 11
184.7824855787279
 21
245.6039331286164
 31
0.0
  0
LINE
  5
CC
330
1F
100
AcDbEntity
  8
0
  6
Continuous
 62
     7
100
AcDbLine
 10
184.2168001537785
 20
247.3388853926755
 30
0.0
 11
184.2168001537787
 21
245.620757442455
 31
0.0
  0
LINE
  5
CD
330
1F
100
AcDbEntity
  8
0
  6
Continuous
 62
     7
100
AcDbLine
 10
184.6743108186465
 20
245.4936496256317
 30
0.0
 11
184.8864428530025
 21
245.3875836084538
 31
0.0
  0
LINE
  5
CE
330
1F
100
AcDbEntity
  8
0
  6
Continuous
 62
     7
100
AcDbLine
 10
182.4844867109815
 20
245.5386508239758
 30
0.0
 11
186.0552777848637
 21
244.8009840217545
 31
0.0
  0
LINE
  5
CF
330
1F
100
AcDbEntity
  8
0
  6
Continuous
 62
     7
100
AcDbLine
 10
184.923985436973
 20
245.374627568975
 30
0.0
 11
185.8431850015116
 21
245.1847360325208
 31
0.0
  0
LINE
  5
D0
330
1F
100
AcDbEntity
  8
0
  6
Continuous
 62
     7
100
AcDbLine
 10
185.6310137161518
 20
248.0869281987518
 30
0.0
 11
185.9940405412941
 21
247.4983454218906
 31
0.0
  0
LINE
  5
D1
330
1F
100
AcDbEntity
  8
0
  6
Continuous
 62
     2
100
AcDbLine
 10
185.7819085069382
 20
247.6044114390686
 30
0.0
 11
185.9940405412941
 21
247.4983454218906
 31
0.0
  0
LINE
  5
D2
330
1F
100
AcDbEntity
  8
0
  6
Continuous
 62
     7
100
AcDbLine
 10
186.0552777848637
 20
248.0918805561354
 30
0.0
 11
185.5579414499995
 21
248.8982220734421
 31
0.0
  0
LINE
  5
D3
330
1F
100
AcDbEntity
  8
0
  6
Continuous
 62
     7
100
AcDbLine
 10
185.9845278557411
 20
245.5554629483997
 30
0.0
 11
185.0653282912025
 21
245.7453544848537
 31
0.0
  0
LINE
  5
D4
330
1F
100
AcDbEntity
  8
0
  6
Continuous
 62
     7
100
AcDbLine
 10
185.7911671133704
 20
245.6550509458382
 30
0.0
 11
186.0032991477264
 21
245.5489849286603
 31
0.0
  0
LINE
  5
D5
330
1F
100
AcDbEntity
  8
0
  6
Continuous
 62
     2
100
AcDbLine
 10
185.7723958213852
 20
245.6615289655776
 30
0.0
 11
185.9845278557411
 21
245.5554629483997
 31
0.0
  0
LINE
  5
D6
330
1F
100
AcDbEntity
  8
0
  6
Continuous
 62
     7
100
AcDbLine
 10
185.8431457505077
 20
250.1032024616391
 30
0.0
 11
186.0552777848637
 21
249.9971364444611
 31
0.0
  0
LINE
  5
D7
330
1F
100
AcDbEntity
  8
0
  6
Continuous
 62
     7
100
AcDbLine
 10
185.7984243909577
 20
247.5888886119426
 30
0.0
 11
186.0105564253137
 21
247.4828225947646
 31
0.0
  0
LINE
  5
D8
330
1F
100
AcDbEntity
  8
0
  6
Continuous
 62
     7
100
AcDbLine
 10
186.0552777848637
 20
245.0009470360861
 30
0.0
 11
182.6613223263842
 21
245.7020825038681
 31
0.0
  0
LINE
  5
D9
330
1F
100
AcDbEntity
  8
0
  6
Continuous
 62
     7
100
AcDbLine
 10
186.0552777848637
 20
244.8009840217545
 30
0.0
 11
189.6260688587458
 21
249.1094418978578
 31
0.0
  0
LINE
  5
DA
330
1F
100
AcDbEntity
  8
0
  6
Continuous
 62
     7
100
AcDbLine
 10
189.6260688587458
 20
249.2594696422399
 30
0.0
 11
186.0552777848637
 21
249.9971364444611
 31
0.0
  0
LINE
  5
DB
330
1F
100
AcDbEntity
  8
0
  6
Continuous
 62
     2
100
AcDbLine
 10
187.6108734524702
 20
249.3980818207594
 30
0.0
 11
187.8230054868261
 21
249.2920158035814
 31
0.0
  0
LINE
  5
DC
330
1F
100
AcDbEntity
  8
0
  6
Continuous
 62
     7
100
AcDbLine
 10
187.8230054868261
 20
249.2920158035814
 30
0.0
 11
187.2573200618768
 21
249.4088771236226
 31
0.0
  0
LINE
  5
DD
330
1F
100
AcDbEntity
  8
0
  6
Continuous
 62
     7
100
AcDbLine
 10
187.6296447444554
 20
249.39160380102
 30
0.0
 11
187.8417767788114
 21
249.285537783842
 31
0.0
  0
LINE
  5
DE
330
1F
100
AcDbEntity
  8
0
  6
Continuous
 62
     2
100
AcDbLine
 10
187.0451880275209
 20
249.5149431408005
 30
0.0
 11
187.2573200618768
 21
249.4088771236226
 31
0.0
  0
LINE
  5
DF
330
1F
100
AcDbEntity
  8
0
  6
Continuous
 62
     2
100
AcDbLine
 10
186.340482085372
 20
249.5016244254844
 30
0.0
 11
186.5526141197279
 21
249.3955584083064
 31
0.0
  0
LINE
  5
E0
330
1F
100
AcDbEntity
  8
0
  6
Continuous
 62
     7
100
AcDbLine
 10
186.5089347838585
 20
249.6236573766936
 30
0.0
 11
186.7210668182145
 21
249.5175913595156
 31
0.0
  0
LINE
  5
E1
330
1F
100
AcDbEntity
  8
0
  6
Continuous
 62
     7
100
AcDbLine
 10
186.0552777848637
 20
249.7971734301295
 30
0.0
 11
189.4492332433431
 21
249.0960379623475
 31
0.0
  0
LINE
  5
E2
330
1F
100
AcDbEntity
  8
0
  6
Continuous
 62
     7
100
AcDbLine
 10
186.340482085372
 20
249.5016244254844
 30
0.0
 11
185.8992117676858
 21
248.3449135647244
 31
0.0
  0
LINE
  5
E3
330
1F
100
AcDbEntity
  8
0
  6
Continuous
 62
     7
100
AcDbLine
 10
187.6108734524702
 20
249.3980818207594
 30
0.0
 11
187.0451880275209
 21
249.5149431408005
 31
0.0
  0
LINE
  5
E4
330
1F
100
AcDbEntity
  8
0
  6
Continuous
 62
     7
100
AcDbLine
 10
189.4139368243899
 20
249.3655356594179
 30
0.0
 11
185.8431457505077
 21
250.1032024616391
 31
0.0
  0
LINE
  5
E5
330
1F
100
AcDbEntity
  8
0
  6
Continuous
 62
     2
100
AcDbLine
 10
186.8330952441688
 20
249.2588690047424
 30
0.0
 11
187.0452272785249
 21
249.1528029875645
 31
0.0
  0
LINE
  5
E6
330
1F
100
AcDbEntity
  8
0
  6
Continuous
 62
     7
100
AcDbLine
 10
187.7523340597114
 20
248.4207934512886
 30
0.0
 11
187.3280699909994
 21
248.2086614169325
 31
0.0
  0
LINE
  5
E7
330
1F
100
AcDbEntity
  8
0
  6
Continuous
 62
     7
100
AcDbLine
 10
187.3280699909994
 20
248.2086614169325
 30
0.0
 11
187.3280699909994
 21
248.9943353213413
 31
0.0
  0
LINE
  5
E8
330
1F
100
AcDbEntity
  8
0
  6
Continuous
 62
     7
100
AcDbLine
 10
187.5402020253554
 20
248.5268594684665
 30
0.0
 11
187.3280699909994
 21
248.4207934512885
 31
0.0
  0
LINE
  5
E9
330
1F
100
AcDbEntity
  8
0
  6
Continuous
 62
     7
100
AcDbLine
 10
187.3280699909994
 20
248.9943353213413
 30
0.0
 11
187.6816626325966
 21
248.9212888877025
 31
0.0
  0
LINE
  5
EA
330
1F
100
AcDbEntity
  8
0
  6
Continuous
 62
     7
100
AcDbLine
 10
187.6296447444554
 20
248.5325398259096
 30
0.0
 11
187.8417767788113
 21
248.4264738087316
 31
0.0
  0
LINE
  5
EB
330
1F
100
AcDbEntity
  8
0
  6
Continuous
 62
     2
100
AcDbLine
 10
187.5402020253554
 20
248.5268594684665
 30
0.0
 11
187.7523340597114
 21
248.4207934512886
 31
0.0
  0
LINE
  5
EC
330
1F
100
AcDbEntity
  8
0
  6
Continuous
 62
     7
100
AcDbLine
 10
189.4492332433431
 20
249.0960379623475
 30
0.0
 11
186.0552777848637
 21
245.0009470360861
 31
0.0
  0
LINE
  5
ED
330
1F
100
AcDbEntity
  8
0
  6
Continuous
 62
     7
100
AcDbLine
 10
187.3280699909994
 20
247.0765773510102
 30
0.0
 11
187.3280699909994
 21
247.8622512554188
 31
0.0
  0
LINE
  5
EE
330
1F
100
AcDbEntity
  8
0
  6
Continuous
 62
     7
100
AcDbLine
 10
187.2573200618768
 20
246.5912856196062
 30
0.0
 11
187.8230054868261
 21
247.2738323645968
 31
0.0
  0
LINE
  5
EF
330
1F
100
AcDbEntity
  8
0
  6
Continuous
 62
     7
100
AcDbLine
 10
187.6816626325967
 20
247.503216426246
 30
0.0
 11
187.3280699909994
 21
247.0765773510102
 31
0.0
  0
LINE
  5
F0
330
1F
100
AcDbEntity
  8
0
  6
Continuous
 62
     7
100
AcDbLine
 10
187.4695305982407
 20
247.609282443424
 30
0.0
 11
187.3280699909994
 21
247.4385983975596
 31
0.0
  0
LINE
  5
F1
330
1F
100
AcDbEntity
  8
0
  6
Continuous
 62
     2
100
AcDbLine
 10
187.4695305982407
 20
247.609282443424
 30
0.0
 11
187.6816626325967
 21
247.503216426246
 31
0.0
  0
LINE
  5
F2
330
1F
100
AcDbEntity
  8
0
  6
Continuous
 62
     7
100
AcDbLine
 10
186.4769967947685
 20
245.8718073152125
 30
0.0
 11
186.0327748348967
 21
245.3358163927117
 31
0.0
  0
LINE
  5
F3
330
1F
100
AcDbEntity
  8
0
  6
Continuous
 62
     7
100
AcDbLine
 10
186.3193884563569
 20
245.9506114844183
 30
0.0
 11
186.5315204907129
 21
245.8445454672403
 31
0.0
  0
LINE
  5
F4
330
1F
100
AcDbEntity
  8
0
  6
Continuous
 62
     7
100
AcDbLine
 10
185.9205925084674
 20
245.2004590397152
 30
0.0
 11
185.8431457505077
 21
245.107013053264
 31
0.0
  0
LINE
  5
F5
330
1F
100
AcDbEntity
  8
0
  6
Continuous
 62
     7
100
AcDbLine
 10
189.1930561561759
 20
249.1489599420386
 30
0.0
 11
187.8662769043783
 21
247.5480898830007
 31
0.0
  0
LINE
  5
F6
330
1F
100
AcDbEntity
  8
0
  6
Continuous
 62
     7
100
AcDbLine
 10
187.3280699909994
 20
247.8622512554188
 30
0.0
 11
187.7523340597114
 21
248.0743832897748
 31
0.0
  0
LINE
  5
F7
330
1F
100
AcDbEntity
  8
0
  6
Continuous
 62
     7
100
AcDbLine
 10
186.8330952441688
 20
249.2588690047424
 30
0.0
 11
186.8330952441688
 21
246.7413329894902
 31
0.0
  0
LINE
  5
F8
330
1F
100
AcDbEntity
  8
0
  6
Continuous
 62
     7
100
AcDbLine
 10
187.6296447444554
 20
247.6734758507993
 30
0.0
 11
187.8417767788113
 21
247.5674098336213
 31
0.0
  0
LINE
  5
F9
330
1F
100
AcDbEntity
  8
0
  6
Continuous
 62
     2
100
AcDbLine
 10
186.2674098192197
 20
246.0587862444997
 30
0.0
 11
186.4795418535756
 21
245.9527202273217
 31
0.0
  0
LINE
  5
FA
330
1F
100
AcDbEntity
  8
0
  6
Continuous
 62
     7
100
AcDbLine
 10
186.1165150284332
 20
247.5595826654601
 30
0.0
 11
186.4795418535756
 21
248.5111922674637
 31
0.0
  0
LINE
  5
FB
330
1F
100
AcDbEntity
  8
0
  6
Continuous
 62
     7
100
AcDbLine
 10
186.2674098192197
 20
247.9551262502857
 30
0.0
 11
186.2674098192197
 21
246.0587862444997
 31
0.0
  0
LINE
  5
FC
330
1F
100
AcDbEntity
  8
0
  6
Continuous
 62
     7
100
AcDbLine
 10
186.4795418535756
 20
248.5111922674637
 30
0.0
 11
186.4795418535756
 21
245.9527202273217
 31
0.0
  0
LINE
  5
FD
330
1F
100
AcDbEntity
  8
0
  6
Continuous
 62
     7
100
AcDbLine
 10
187.0426822197178
 20
246.5543540602031
 30
0.0
 11
186.7623845660502
 21
246.2161515138736
 31
0.0
  0
LINE
  5
FE
330
1F
100
AcDbEntity
  8
0
  6
Continuous
 62
     7
100
AcDbLine
 10
186.8850738813062
 20
246.6331582294089
 30
0.0
 11
187.0972059156621
 21
246.5270922122309
 31
0.0
  0
LINE
  5
FF
330
1F
100
AcDbEntity
  8
0
  6
Continuous
 62
     2
100
AcDbLine
 10
186.8330952441688
 20
246.7413329894902
 30
0.0
 11
187.0452272785249
 21
246.6352669723122
 31
0.0
  0
LINE
  5
100
330
1F
100
AcDbEntity
  8
0
  6
Continuous
 62
     7
100
AcDbLine
 10
187.0452272785249
 20
249.1528029875645
 30
0.0
 11
187.0452272785249
 21
246.6352669723122
 31
0.0
  0
LINE
  5
101
330
1F
100
AcDbEntity
  8
0
  6
Continuous
 62
     7
100
AcDbLine
 10
185.8431457505077
 20
245.107013053264
 30
0.0
 11
186.0552777848637
 21
245.0009470360861
 31
0.0
  0
LINE
  5
102
330
1F
100
AcDbEntity
  8
0
  6
Continuous
 62
     7
100
AcDbLine
 10
186.7623845660503
 20
246.094141583559
 30
0.0
 11
186.7623845660502
 21
249.431603390123
 31
0.0
  0
LINE
  5
103
330
1F
100
AcDbEntity
  8
0
  6
Continuous
 62
     7
100
AcDbLine
 10
186.5526141197279
 20
249.3955584083064
 30
0.0
 11
186.0552777848637
 21
248.0918805561354
 31
0.0
  0
LINE
  5
104
330
1F
100
AcDbEntity
  8
0
  6
Continuous
 62
     7
100
AcDbLine
 10
188.4312189564371
 20
277.3678895132234
 30
0.0
 11
191.7478740353859
 21
268.1205117284361
 31
0.0
  0
LINE
  5
105
330
1F
100
AcDbEntity
  8
0
  6
Continuous
 62
     7
100
AcDbLine
 10
193.9748106584907
 20
226.2070962812717
 30
0.0
 11
179.8328011860845
 21
219.1360915450686
 31
0.0
  0
LINE
  5
106
330
1F
100
AcDbEntity
  8
0
  6
Continuous
 62
     7
100
AcDbLine
 10
160.7408550183853
 20
222.7430262039651
 30
0.0
 11
174.8829906421162
 21
215.6719583920997
 31
0.0
  0
LINE
  5
107
330
1F
100
AcDbEntity
  8
0
  6
Continuous
 62
     7
100
AcDbLine
 10
174.8829275664539
 20
219.1360915450686
 30
0.0
 11
160.7409180940476
 21
226.2070962812717
 31
0.0
  0
LINE
  5
108
330
1F
100
AcDbEntity
  8
0
  6
Continuous
 62
     7
100
AcDbLine
 10
175.0951226764722
 20
221.3896922675159
 30
0.0
 11
171.5242334314801
 21
223.1751368900119
 31
0.0
  0
LINE
  5
109
330
1F
100
AcDbEntity
  8
0
  6
Continuous
 62
     7
100
AcDbLine
 10
166.220932572581
 20
223.8603720882478
 30
0.0
 11
169.7564664785137
 21
222.0926051352814
 31
0.0
  0
LINE
  5
10A
330
1F
100
AcDbEntity
  8
0
  6
Continuous
 62
     7
100
AcDbLine
 10
166.9305891098418
 20
224.0760553535428
 30
0.0
 11
164.455715375689
 21
225.8697073997119
 31
0.0
  0
LINE
  5
10B
330
1F
100
AcDbEntity
  8
0
  6
Continuous
 62
     7
100
AcDbLine
 10
169.7564664785137
 20
222.0926051352814
 30
0.0
 11
171.5242334314801
 21
223.1751368900119
 31
0.0
  0
LINE
  5
10C
330
1F
100
AcDbEntity
  8
0
  6
Continuous
 62
     7
100
AcDbLine
 10
164.455715375689
 20
227.0711309179211
 30
0.0
 11
164.455715375689
 21
225.8697073997119
 31
0.0
  0
LINE
  5
10D
330
1F
100
AcDbEntity
  8
0
  6
Continuous
 62
     7
100
AcDbLine
 10
169.7564664785137
 20
226.9856486666635
 30
0.0
 11
169.7564664785137
 21
222.0926051352814
 31
0.0
  0
LINE
  5
10E
330
1F
100
AcDbEntity
  8
0
  6
Continuous
 62
     7
100
AcDbLine
 10
171.5242334314801
 20
226.9856486666635
 30
0.0
 11
171.5242334314801
 21
223.1751368900119
 31
0.0
  0
LINE
  5
10F
330
1F
100
AcDbEntity
  8
0
  6
Continuous
 62
     2
100
AcDbLine
 10
175.1280829853765
 20
221.3737385689908
 30
0.0
 11
174.8829275664539
 21
219.1360915450686
 31
0.0
  0
LINE
  5
110
330
1F
100
AcDbEntity
  8
0
  6
Continuous
 62
     2
100
AcDbLine
 10
179.5876457671618
 20
221.3737385689908
 30
0.0
 11
179.8328011860845
 21
219.1360915450686
 31
0.0
  0
LINE
  5
111
330
1F
100
AcDbEntity
  8
0
  6
Continuous
 62
     7
100
AcDbLine
 10
166.5719362071
 20
226.0130205022156
 30
0.0
 11
169.046809941253
 21
227.2504573692921
 31
0.0
  0
LINE
  5
112
330
1F
100
AcDbEntity
  8
0
  6
Continuous
 62
     2
100
AcDbLine
 10
169.7564664785137
 20
226.9856486666635
 30
0.0
 11
171.5242334314801
 21
226.9856486666635
 31
0.0
  0
LINE
  5
113
330
1F
100
AcDbEntity
  8
0
  6
Continuous
 62
     7
100
AcDbLine
 10
164.455715375689
 20
225.8697073997119
 30
0.0
 11
166.5719362071
 21
224.8115969840064
 31
0.0
  0
LINE
  5
114
330
1F
100
AcDbEntity
  8
0
  6
Continuous
 62
     7
100
AcDbLine
 10
169.046809941253
 20
223.0179449378373
 30
0.0
 11
169.046809941253
 21
227.2504573692921
 31
0.0
  0
LINE
  5
115
330
1F
100
AcDbEntity
  8
0
  6
Continuous
 62
     7
100
AcDbLine
 10
166.5719362071
 20
224.8115969840064
 30
0.0
 11
169.046809941253
 21
223.0179449378373
 31
0.0
  0
LINE
  5
116
330
1F
100
AcDbEntity
  8
0
  6
Continuous
 62
     7
100
AcDbLine
 10
166.5719362071
 20
224.8115969840064
 30
0.0
 11
166.5719362071
 21
226.0130205022156
 31
0.0
  0
LINE
  5
117
330
1F
100
AcDbEntity
  8
0
  6
Continuous
 62
     7
100
AcDbLine
 10
166.220932572581
 20
223.8603720882478
 30
0.0
 11
166.220932572581
 21
224.5903752893721
 31
0.0
  0
LINE
  5
118
330
1F
100
AcDbEntity
  8
0
  6
Continuous
 62
     7
100
AcDbLine
 10
169.046809941253
 20
223.0179449378373
 30
0.0
 11
166.9305891098418
 21
224.0760553535428
 31
0.0
  0
LINE
  5
119
330
1F
100
AcDbEntity
  8
0
  6
Continuous
 62
     2
100
AcDbLine
 10
160.7408550183853
 20
222.7430262039651
 30
0.0
 11
160.7408550183853
 21
226.2071278183431
 31
0.0
  0
LINE
  5
11A
330
1F
100
AcDbEntity
  8
0
  6
Continuous
 62
     2
100
AcDbLine
 10
160.7409180940476
 20
226.2070962812717
 30
0.0
 11
162.617556291763
 21
227.6290019157975
 31
0.0
  0
LINE
  5
11B
330
1F
100
AcDbEntity
  8
0
  6
Continuous
 62
     7
100
AcDbLine
 10
164.455715375689
 20
226.7093959179076
 30
0.0
 11
162.650043327589
 21
227.6122319419575
 31
0.0
  0
LINE
  5
11C
330
1F
100
AcDbEntity
  8
0
  6
Continuous
 62
     7
100
AcDbLine
 10
166.220932572581
 20
228.6626996497883
 30
0.0
 11
166.220932572581
 21
228.7534156196299
 31
0.0
  0
LINE
  5
11D
330
1F
100
AcDbEntity
  8
0
  6
Continuous
 62
     7
100
AcDbLine
 10
161.7127850273859
 20
229.3121184391545
 30
0.0
 11
160.4275747522638
 21
228.5077027476008
 31
0.0
  0
LINE
  5
11E
330
1F
100
AcDbEntity
  8
0
  6
Continuous
 62
     7
100
AcDbLine
 10
164.8430053981446
 20
227.9737360625701
 30
0.0
 11
167.3178791322974
 21
229.2111729296466
 31
0.0
  0
LINE
  5
11F
330
1F
100
AcDbEntity
  8
0
  6
Continuous
 62
     7
100
AcDbLine
 10
166.220932572581
 20
228.7534156196299
 30
0.0
 11
166.220932572581
 21
229.637299096113
 31
0.0
  0
LINE
  5
120
330
1F
100
AcDbEntity
  8
0
  6
Continuous
 62
     2
100
AcDbLine
 10
174.8829906421162
 20
215.6719583920997
 30
0.0
 11
174.882990642113
 21
219.1360600064793
 31
0.0
  0
LINE
  5
121
330
1F
100
AcDbEntity
  8
0
  6
Continuous
 62
     2
100
AcDbLine
 10
179.832738110422
 20
215.6719583920997
 30
0.0
 11
179.832738110422
 21
219.1360600064776
 31
0.0
  0
LINE
  5
122
330
1F
100
AcDbEntity
  8
0
  6
Continuous
 62
     7
100
AcDbLine
 10
192.0656854249494
 20
227.6122319419575
 30
0.0
 11
179.6206060760661
 21
221.3896922675159
 31
0.0
  0
LINE
  5
123
330
1F
100
AcDbEntity
  8
0
  6
Continuous
 62
     7
100
AcDbLine
 10
179.832738110422
 20
215.6719583920997
 30
0.0
 11
193.974873734153
 21
222.7430262039651
 31
0.0
  0
LINE
  5
124
330
1F
100
AcDbEntity
  8
0
  6
Continuous
 62
     2
100
AcDbLine
 10
193.9748106584907
 20
226.2070962812717
 30
0.0
 11
192.0981724607752
 21
227.6290019157975
 31
0.0
  0
LINE
  5
125
330
1F
100
AcDbEntity
  8
0
  6
Continuous
 62
     2
100
AcDbLine
 10
193.974873734153
 20
222.7430262039651
 30
0.0
 11
193.9748737341498
 21
226.2071278183415
 31
0.0
  0
LINE
  5
126
330
1F
100
AcDbEntity
  8
0
  6
Continuous
 62
     2
100
AcDbLine
 10
192.0656854249494
 20
227.6122319419575
 30
0.0
 11
192.0656854249347
 21
264.958704041231
 31
0.0
  0
LINE
  5
127
330
1F
100
AcDbEntity
  8
0
  6
Continuous
 62
     7
100
AcDbLine
 10
193.0029437251524
 20
228.8025021694618
 30
0.0
 11
193.0029437251524
 21
263.9253160179366
 31
0.0
  0
LINE
  5
128
330
1F
100
AcDbEntity
  8
0
  6
Continuous
 62
     7
100
AcDbLine
 10
195.0000000000001
 20
223.9804630710416
 30
0.0
 11
195.0000000000001
 21
227.4959166075141
 31
0.0
  0
LINE
  5
129
330
1F
100
AcDbEntity
  8
0
  6
Continuous
 62
     7
100
AcDbLine
 10
193.0029437251524
 20
229.3121184391544
 30
0.0
 11
194.2881540002728
 21
228.5077027475982
 31
0.0
  0
LINE
  5
12A
330
1F
100
AcDbEntity
  8
0
  6
Continuous
 62
     2
100
AcDbLine
 10
175.0951226764673
 20
258.736164366776
 30
0.0
 11
175.0951226764722
 21
221.3896922675159
 31
0.0
  0
LINE
  5
12B
330
1F
100
AcDbEntity
  8
0
  6
Continuous
 62
     2
100
AcDbLine
 10
179.6206060716982
 20
258.7361643542307
 30
0.0
 11
179.6206060760661
 21
221.3896922675159
 31
0.0
  0
LINE
  5
12C
330
1F
100
AcDbEntity
  8
0
  6
Continuous
 62
     7
100
AcDbLine
 10
159.7157287525382
 20
223.9804630710416
 30
0.0
 11
159.7157287525382
 21
227.4959166075141
 31
0.0
  0
LINE
  5
12D
330
1F
100
AcDbEntity
  8
0
  6
Continuous
 62
     7
100
AcDbLine
 10
161.7127850273859
 20
228.8025021694618
 30
0.0
 11
161.7127850273859
 21
263.9253160179366
 31
0.0
  0
LINE
  5
12E
330
1F
100
AcDbEntity
  8
0
  6
Continuous
 62
     7
100
AcDbLine
 10
166.2845097961013
 20
277.3678895132234
 30
0.0
 11
162.9678547171525
 21
268.1205117284361
 31
0.0
  0
LINE
  5
12F
330
1F
100
AcDbEntity
  8
0
  6
Continuous
 62
     2
100
AcDbLine
 10
162.650043327589
 20
227.6122319419575
 30
0.0
 11
162.650043327589
 21
264.9587040412037
 31
0.0
  0
LINE
  5
130
330
1F
100
AcDbEntity
  8
1
  6
Continuous
 62
     2
100
AcDbLine
 10
156.3187538830358
 20
186.2912236222053
 30
0.0
 11
156.3187538830358
 21
186.2921896467144
 31
0.0
  0
LINE
  5
131
330
1F
100
AcDbEntity
  8
1
  6
Continuous
 62
     2
100
AcDbLine
 10
138.3187538830358
 20
186.2912236222053
 30
0.0
 11
138.3187538830358
 21
186.2921896467144
 31
0.0
  0
LINE
  5
132
330
1F
100
AcDbEntity
  8
1
  6
DOT_CENTER
 62
     2
100
AcDbLine
 10
147.3187538830358
 20
146.1388648865114
 30
0.0
 11
147.3187538830358
 21
134.4388648865114
 31
0.0
  0
LINE
  5
133
330
1F
100
AcDbEntity
  8
1
  6
DOT_CENTER
 62
     2
100
AcDbLine
 10
153.1687538830358
 20
140.2888648865114
 30
0.0
 11
141.4687538830357
 21
140.2888648865114
 31
0.0
  0
LINE
  5
134
330
1F
100
AcDbEntity
  8
0
  6
Continuous
 62
     7
100
AcDbLine
 10
86.41875473980707
 20
131.2888648865113
 30
0.0
 11
86.41875473980707
 21
135.6888648865113
 31
0.0
  0
LINE
  5
135
330
1F
100
AcDbEntity
  8
0
  6
Continuous
 62
     2
100
AcDbLine
 10
92.66875473980707
 20
125.7888648865113
 30
0.0
 11
92.66875473980707
 21
129.788864885634
 31
0.0
  0
LINE
  5
136
330
1F
100
AcDbEntity
  8
0
  6
Continuous
 62
     7
100
AcDbLine
 10
93.91875473980707
 20
186.2888648865113
 30
0.0
 11
94.66875473980707
 21
183.8357254226482
 31
0.0
  0
LINE
  5
137
330
1F
100
AcDbEntity
  8
0
  6
Continuous
 62
     2
100
AcDbLine
 10
91.46875473980708
 20
174.4128563260765
 30
0.0
 11
91.46875473980708
 21
131.2888648865113
 31
0.0
  0
LINE
  5
138
330
1F
100
AcDbEntity
  8
0
  6
Continuous
 62
     7
100
AcDbLine
 10
93.91875473980707
 20
186.2888648865113
 30
0.0
 11
90.62370602815577
 21
186.2888648865113
 31
0.0
  0
LINE
  5
139
330
1F
100
AcDbEntity
  8
0
  6
Continuous
 62
     7
100
AcDbLine
 10
94.66875473980707
 20
174.4128563260797
 30
0.0
 11
94.66875473980707
 21
131.2888648865113
 31
0.0
  0
LINE
  5
13A
330
1F
100
AcDbEntity
  8
0
  6
Continuous
 62
     7
100
AcDbLine
 10
94.66875473980707
 20
183.8357254226482
 30
0.0
 11
94.66875473980707
 21
174.4128563260797
 31
0.0
  0
LINE
  5
13B
330
1F
100
AcDbEntity
  8
0
  6
Continuous
 62
     7
100
AcDbLine
 10
94.66842008520393
 20
131.2891995411144
 30
0.0
 11
94.66875473980707
 21
131.2888648865113
 31
0.0
  0
LINE
  5
13C
330
1F
100
AcDbEntity
  8
0
  6
Continuous
 62
     7
100
AcDbLine
 10
90.62370602815577
 20
186.2888648865113
 30
0.0
 11
71.41875473980707
 21
186.2888648865113
 31
0.0
  0
LINE
  5
13D
330
1F
100
AcDbEntity
  8
0
  6
Continuous
 62
     7
100
AcDbLine
 10
71.41875473980707
 20
186.2888648865113
 30
0.0
 11
70.66875473980707
 21
183.8357254226482
 31
0.0
  0
LINE
  5
13E
330
1F
100
AcDbEntity
  8
0
  6
Continuous
 62
     7
100
AcDbLine
 10
70.66875473980707
 20
183.8357254226482
 30
0.0
 11
70.66875473980707
 21
174.4128563261165
 31
0.0
  0
LINE
  5
13F
330
1F
100
AcDbEntity
  8
0
  6
Continuous
 62
     7
100
AcDbLine
 10
70.66875473980707
 20
157.7651670517366
 30
0.0
 11
70.66875473980707
 21
157.9384041689464
 31
0.0
  0
LINE
  5
140
330
1F
100
AcDbEntity
  8
0
  6
Continuous
 62
     7
100
AcDbLine
 10
70.66875473980707
 20
131.2888648865113
 30
0.0
 11
69.16875473980707
 21
129.788864885634
 31
0.0
  0
LINE
  5
141
330
1F
100
AcDbEntity
  8
0
  6
Continuous
 62
     7
100
AcDbLine
 10
80.16875473980707
 20
135.6888648865113
 30
0.0
 11
80.16875473980707
 21
130.0388648865113
 31
0.0
  0
LINE
  5
142
330
1F
100
AcDbEntity
  8
0
  6
Continuous
 62
     7
100
AcDbLine
 10
81.17236063942806
 20
134.1976348618867
 30
0.0
 11
84.16514884018608
 21
134.1976348618867
 31
0.0
  0
LINE
  5
143
330
1F
100
AcDbEntity
  8
0
  6
Continuous
 62
     7
100
AcDbLine
 10
81.17236063942806
 20
135.5849192451843
 30
0.0
 11
81.17236063942806
 21
134.1976348618867
 31
0.0
  0
LINE
  5
144
330
1F
100
AcDbEntity
  8
0
  6
Continuous
 62
     7
100
AcDbLine
 10
78.91875473980707
 20
135.6888648865113
 30
0.0
 11
78.91875473980707
 21
131.2888648865113
 31
0.0
  0
LINE
  5
145
330
1F
100
AcDbEntity
  8
0
  6
Continuous
 62
     2
100
AcDbLine
 10
80.16875473980707
 20
135.6888648865113
 30
0.0
 11
78.91875473980707
 21
135.6888648865113
 31
0.0
  0
LINE
  5
146
330
1F
100
AcDbEntity
  8
0
  6
Continuous
 62
     7
100
AcDbLine
 10
84.16514884018608
 20
134.1976348618867
 30
0.0
 11
84.16514884018608
 21
135.5849192451843
 31
0.0
  0
LINE
  5
147
330
1F
100
AcDbEntity
  8
0
  6
Continuous
 62
     7
100
AcDbLine
 10
81.17236063942806
 20
130.6976348618867
 30
0.0
 11
81.17236063942806
 21
134.1976348618867
 31
0.0
  0
LINE
  5
148
330
1F
100
AcDbEntity
  8
0
  6
Continuous
 62
     7
100
AcDbLine
 10
84.16514884018608
 20
134.1976348618867
 30
0.0
 11
84.16514884018608
 21
130.6976348618867
 31
0.0
  0
LINE
  5
149
330
1F
100
AcDbEntity
  8
0
  6
Continuous
 62
     7
100
AcDbLine
 10
69.16875473980707
 20
125.7888648865113
 30
0.0
 11
72.66875473980707
 21
125.7888648865113
 31
0.0
  0
LINE
  5
14A
330
1F
100
AcDbEntity
  8
0
  6
Continuous
 62
     7
100
AcDbLine
 10
69.16875473980707
 20
125.7888648865113
 30
0.0
 11
69.16875473980707
 21
129.788864885634
 31
0.0
  0
LINE
  5
14B
330
1F
100
AcDbEntity
  8
0
  6
Continuous
 62
     7
100
AcDbLine
 10
70.66908939441015
 20
131.2891995411144
 30
0.0
 11
70.66875473980707
 21
131.2888648865113
 31
0.0
  0
LINE
  5
14C
330
1F
100
AcDbEntity
  8
0
  6
Continuous
 62
     2
100
AcDbLine
 10
72.66884394226423
 20
129.7888648865114
 30
0.0
 11
73.82247647853768
 21
131.2891995411144
 31
0.0
  0
LINE
  5
14D
330
1F
100
AcDbEntity
  8
0
  6
Continuous
 62
     2
100
AcDbLine
 10
73.86875473980706
 20
131.2888648865113
 30
0.0
 11
73.86875473362994
 21
174.4128563141284
 31
0.0
  0
LINE
  5
14E
330
1F
100
AcDbEntity
  8
0
  6
Continuous
 62
     2
100
AcDbLine
 10
72.66875473980707
 20
125.7888648865113
 30
0.0
 11
72.66875473981577
 21
129.788864885634
 31
0.0
  0
LINE
  5
14F
330
1F
100
AcDbEntity
  8
0
  6
Continuous
 62
     7
100
AcDbLine
 10
85.16875473980707
 20
130.0388648865113
 30
0.0
 11
86.41875473980707
 21
131.2888648865113
 31
0.0
  0
LINE
  5
150
330
1F
100
AcDbEntity
  8
0
  6
Continuous
 62
     7
100
AcDbLine
 10
78.91875473980707
 20
131.2888648865113
 30
0.0
 11
80.16875473980707
 21
130.0388648865113
 31
0.0
  0
LINE
  5
151
330
1F
100
AcDbEntity
  8
0
  6
Continuous
 62
     7
100
AcDbLine
 10
72.66884394226423
 20
129.7888648865114
 30
0.0
 11
92.66866553734985
 21
129.7888648865114
 31
0.0
  0
LINE
  5
152
330
1F
100
AcDbEntity
  8
0
  6
Continuous
 62
     7
100
AcDbLine
 10
94.66875473980707
 20
131.2888648865113
 30
0.0
 11
96.16875473980707
 21
129.788864885634
 31
0.0
  0
LINE
  5
153
330
1F
100
AcDbEntity
  8
0
  6
Continuous
 62
     7
100
AcDbLine
 10
86.41875473980707
 20
131.2888648865113
 30
0.0
 11
91.46875473980708
 21
131.2888648865113
 31
0.0
  0
LINE
  5
154
330
1F
100
AcDbEntity
  8
0
  6
Continuous
 62
     7
100
AcDbLine
 10
73.86875473980706
 20
131.2888648865113
 30
0.0
 11
78.91875473980707
 21
131.2888648865113
 31
0.0
  0
LINE
  5
155
330
1F
100
AcDbEntity
  8
0
  6
Continuous
 62
     7
100
AcDbLine
 10
80.16875473980707
 20
130.0388648865113
 30
0.0
 11
85.16875473980707
 21
130.0388648865113
 31
0.0
  0
LINE
  5
156
330
1F
100
AcDbEntity
  8
0
  6
Continuous
 62
     7
100
AcDbLine
 10
81.17236063942806
 20
130.6976348618867
 30
0.0
 11
84.16514884018608
 21
130.6976348618867
 31
0.0
  0
LINE
  5
157
330
1F
100
AcDbEntity
  8
0
  6
Continuous
 62
     2
100
AcDbLine
 10
91.51503300107646
 20
131.2891995411144
 30
0.0
 11
92.66866553734985
 21
129.7888648865114
 31
0.0
  0
LINE
  5
158
330
1F
100
AcDbEntity
  8
0
  6
Continuous
 62
     7
100
AcDbLine
 10
92.66875473980707
 20
125.7888648865113
 30
0.0
 11
72.66875473980707
 21
125.7888648865113
 31
0.0
  0
LINE
  5
159
330
1F
100
AcDbEntity
  8
0
  6
Continuous
 62
     7
100
AcDbLine
 10
92.66875473980707
 20
125.7888648865113
 30
0.0
 11
96.16875473980707
 21
125.7888648865113
 31
0.0
  0
LINE
  5
15A
330
1F
100
AcDbEntity
  8
0
  6
Continuous
 62
     7
100
AcDbLine
 10
96.16875473980707
 20
125.7888648865113
 30
0.0
 11
96.16875473980707
 21
129.788864885634
 31
0.0
  0
LINE
  5
15B
330
1F
100
AcDbEntity
  8
0
  6
Continuous
 62
     2
100
AcDbLine
 10
85.16875473980707
 20
135.6888648865113
 30
0.0
 11
86.41875473980707
 21
135.6888648865113
 31
0.0
  0
LINE
  5
15C
330
1F
100
AcDbEntity
  8
0
  6
Continuous
 62
     7
100
AcDbLine
 10
85.16875473980707
 20
130.0388648865113
 30
0.0
 11
85.16875473980707
 21
135.6888648865113
 31
0.0
  0
LINE
  5
15D
330
1F
100
AcDbEntity
  8
0
  6
Continuous
 62
     7
100
AcDbLine
 10
70.66875473980707
 20
131.2888648865113
 30
0.0
 11
70.66875473980707
 21
154.8517856103415
 31
0.0
  0
LINE
  5
15E
330
1F
100
AcDbEntity
  8
0
  6
Continuous
 62
     7
100
AcDbLine
 10
70.66875473980707
 20
157.9384041689464
 30
0.0
 11
70.66875473980707
 21
160.8517856103415
 31
0.0
  0
LINE
  5
15F
330
1F
100
AcDbEntity
  8
0
  6
Continuous
 62
     7
100
AcDbLine
 10
70.66875473980707
 20
154.8517856103415
 30
0.0
 11
70.66875473980707
 21
157.7651670517366
 31
0.0
  0
LINE
  5
160
330
1F
100
AcDbEntity
  8
0
  6
Continuous
 62
     7
100
AcDbLine
 10
70.66875473980707
 20
160.8517856103415
 30
0.0
 11
70.66875473980707
 21
174.4128563261165
 31
0.0
  0
LINE
  5
161
330
1F
100
AcDbEntity
  8
0
  6
Continuous
 62
     7
100
AcDbLine
 10
70.66875473980707
 20
160.8517856103415
 30
0.0
 11
70.36875473980706
 21
160.8517856103415
 31
0.0
  0
LINE
  5
162
330
1F
100
AcDbEntity
  8
0
  6
Continuous
 62
     2
100
AcDbLine
 10
70.66875473980707
 20
157.7651670517366
 30
0.0
 11
70.36875473980706
 21
157.7651670517366
 31
0.0
  0
LINE
  5
163
330
1F
100
AcDbEntity
  8
0
  6
Continuous
 62
     2
100
AcDbLine
 10
70.66875473980707
 20
157.9384041689464
 30
0.0
 11
70.36875473980706
 21
157.9384041689464
 31
0.0
  0
LINE
  5
164
330
1F
100
AcDbEntity
  8
0
  6
Continuous
 62
     7
100
AcDbLine
 10
70.36875473980706
 20
157.7651670517366
 30
0.0
 11
70.36875473980706
 21
157.9384041689464
 31
0.0
  0
LINE
  5
165
330
1F
100
AcDbEntity
  8
0
  6
Continuous
 62
     7
100
AcDbLine
 10
70.66875473980707
 20
154.8517856103415
 30
0.0
 11
70.36875473980706
 21
154.8517856103415
 31
0.0
  0
LINE
  5
166
330
1F
100
AcDbEntity
  8
0
  6
Continuous
 62
     7
100
AcDbLine
 10
70.36875473980706
 20
157.9384041689464
 30
0.0
 11
70.36875473980706
 21
160.8517856103415
 31
0.0
  0
LINE
  5
167
330
1F
100
AcDbEntity
  8
0
  6
Continuous
 62
     7
100
AcDbLine
 10
70.36875473980706
 20
154.8517856103415
 30
0.0
 11
70.36875473980706
 21
157.7651670517366
 31
0.0
  0
LINE
  5
168
330
1F
100
AcDbEntity
  8
0
  6
Continuous
 62
     7
100
AcDbLine
 10
158.5687538830358
 20
186.2888648865113
 30
0.0
 11
136.0687538830358
 21
186.2888648865113
 31
0.0
  0
LINE
  5
169
330
1F
100
AcDbEntity
  8
0
  6
Continuous
 62
     7
100
AcDbLine
 10
159.3187538830358
 20
131.2888648865114
 30
0.0
 11
160.5687538830358
 21
130.0388648865114
 31
0.0
  0
LINE
  5
16A
330
1F
100
AcDbEntity
  8
0
  6
Continuous
 62
     2
100
AcDbLine
 10
157.3187538830358
 20
125.7888648865114
 30
0.0
 11
157.3187538830312
 21
129.788864885634
 31
0.0
  0
LINE
  5
16B
330
1F
100
AcDbEntity
  8
0
  6
Continuous
 62
     7
100
AcDbLine
 10
159.3187538830358
 20
183.8357254226482
 30
0.0
 11
159.3187538830358
 21
174.4128563247071
 31
0.0
  0
LINE
  5
16C
330
1F
100
AcDbEntity
  8
0
  6
Continuous
 62
     7
100
AcDbLine
 10
159.3187538830358
 20
135.6888648865113
 30
0.0
 11
159.3187538830358
 21
139.4388648865113
 31
0.0
  0
LINE
  5
16D
330
1F
100
AcDbEntity
  8
0
  6
Continuous
 62
     7
100
AcDbLine
 10
159.3184192284327
 20
131.2891995411144
 30
0.0
 11
159.3187538830358
 21
131.2888648865114
 31
0.0
  0
LINE
  5
16E
330
1F
100
AcDbEntity
  8
0
  6
Continuous
 62
     7
100
AcDbLine
 10
157.3187538830358
 20
125.7888648865114
 30
0.0
 11
160.8187538830358
 21
125.7888648865114
 31
0.0
  0
LINE
  5
16F
330
1F
100
AcDbEntity
  8
0
  6
Continuous
 62
     7
100
AcDbLine
 10
160.5687538830358
 20
135.6888648865113
 30
0.0
 11
160.5687538830358
 21
137.1888648865113
 31
0.0
  0
LINE
  5
170
330
1F
100
AcDbEntity
  8
0
  6
Continuous
 62
     7
100
AcDbLine
 10
160.5687538830358
 20
137.1888648865113
 30
0.0
 11
160.5687538830358
 21
138.1888648865113
 31
0.0
  0
LINE
  5
171
330
1F
100
AcDbEntity
  8
0
  6
Continuous
 62
     7
100
AcDbLine
 10
160.8187538830358
 20
125.7888648865114
 30
0.0
 11
160.8187538830358
 21
129.788864885634
 31
0.0
  0
LINE
  5
172
330
1F
100
AcDbEntity
  8
0
  6
Continuous
 62
     7
100
AcDbLine
 10
160.5687538830358
 20
130.0388648865114
 30
0.0
 11
160.8187538830358
 21
129.788864885634
 31
0.0
  0
LINE
  5
173
330
1F
100
AcDbEntity
  8
0
  6
Continuous
 62
     7
100
AcDbLine
 10
160.5687538830358
 20
138.1888648865113
 30
0.0
 11
159.3187538830358
 21
139.4388648865113
 31
0.0
  0
LINE
  5
174
330
1F
100
AcDbEntity
  8
0
  6
Continuous
 62
     7
100
AcDbLine
 10
135.3187538830358
 20
174.4128563260899
 30
0.0
 11
135.3187538830358
 21
139.4388648865113
 31
0.0
  0
LINE
  5
175
330
1F
100
AcDbEntity
  8
0
  6
Continuous
 62
     7
100
AcDbLine
 10
136.0687538830358
 20
186.2888648865113
 30
0.0
 11
135.3187538830358
 21
183.8357254226482
 31
0.0
  0
LINE
  5
176
330
1F
100
AcDbEntity
  8
0
  6
Continuous
 62
     2
100
AcDbLine
 10
137.3187538830358
 20
125.7888648865114
 30
0.0
 11
137.3187538830358
 21
129.788864885634
 31
0.0
  0
LINE
  5
177
330
1F
100
AcDbEntity
  8
0
  6
Continuous
 62
     7
100
AcDbLine
 10
158.5687538830358
 20
186.2888648865113
 30
0.0
 11
159.3187538830358
 21
183.8357254226482
 31
0.0
  0
LINE
  5
178
330
1F
100
AcDbEntity
  8
0
  6
Continuous
 62
     7
100
AcDbLine
 10
130.5687538830358
 20
134.1976348618867
 30
0.0
 11
134.0687538830358
 21
130.6976348618867
 31
0.0
  0
LINE
  5
179
330
1F
100
AcDbEntity
  8
0
  6
Continuous
 62
     7
100
AcDbLine
 10
134.0687538830358
 20
138.1888648865113
 30
0.0
 11
135.3187538830358
 21
139.4388648865113
 31
0.0
  0
LINE
  5
17A
330
1F
100
AcDbEntity
  8
0
  6
Continuous
 62
     7
100
AcDbLine
 10
135.3187538830358
 20
183.8357254226482
 30
0.0
 11
135.3187538830358
 21
174.4128563260899
 31
0.0
  0
LINE
  5
17B
330
1F
100
AcDbEntity
  8
0
  6
Continuous
 62
     7
100
AcDbLine
 10
130.5687538830358
 20
134.1976348618867
 30
0.0
 11
130.5687538830358
 21
135.5849192451843
 31
0.0
  0
LINE
  5
17C
330
1F
100
AcDbEntity
  8
0
  6
Continuous
 62
     7
100
AcDbLine
 10
130.5687538830358
 20
135.5849192451843
 30
0.0
 11
134.0687538830358
 21
135.5849192451844
 31
0.0
  0
LINE
  5
17D
330
1F
100
AcDbEntity
  8
0
  6
Continuous
 62
     7
100
AcDbLine
 10
135.3187538830358
 20
139.4388648865113
 30
0.0
 11
135.3187538830358
 21
135.6888648865113
 31
0.0
  0
LINE
  5
17E
330
1F
100
AcDbEntity
  8
0
  6
Continuous
 62
     7
100
AcDbLine
 10
134.0687538830358
 20
135.6888648865113
 30
0.0
 11
134.0687538830358
 21
137.1888648865113
 31
0.0
  0
LINE
  5
17F
330
1F
100
AcDbEntity
  8
0
  6
Continuous
 62
     7
100
AcDbLine
 10
134.0687538830358
 20
137.1888648865113
 30
0.0
 11
134.0687538830358
 21
138.1888648865113
 31
0.0
  0
LINE
  5
180
330
1F
100
AcDbEntity
  8
0
  6
Continuous
 62
     7
100
AcDbLine
 10
130.5687538830358
 20
137.1888648865113
 30
0.0
 11
134.0687538830358
 21
137.1888648865113
 31
0.0
  0
LINE
  5
181
330
1F
100
AcDbEntity
  8
0
  6
Continuous
 62
     7
100
AcDbLine
 10
130.5687538830358
 20
135.5849192451843
 30
0.0
 11
130.5687538830358
 21
137.1888648865113
 31
0.0
  0
LINE
  5
182
330
1F
100
AcDbEntity
  8
0
  6
Continuous
 62
     2
100
AcDbLine
 10
138.4724756217664
 20
131.2891995411144
 30
0.0
 11
137.3188430854929
 21
129.7888648865113
 31
0.0
  0
LINE
  5
183
330
1F
100
AcDbEntity
  8
0
  6
Continuous
 62
     7
100
AcDbLine
 10
137.3187538830358
 20
125.7888648865114
 30
0.0
 11
157.3187538830358
 21
125.7888648865114
 31
0.0
  0
LINE
  5
184
330
1F
100
AcDbEntity
  8
0
  6
Continuous
 62
     7
100
AcDbLine
 10
160.5687538830358
 20
130.6976348618867
 30
0.0
 11
164.0687538830358
 21
134.1976348618867
 31
0.0
  0
LINE
  5
185
330
1F
100
AcDbEntity
  8
0
  6
Continuous
 62
     7
100
AcDbLine
 10
135.3187538830358
 20
131.2888648865114
 30
0.0
 11
134.0687538830358
 21
130.0388648865114
 31
0.0
  0
LINE
  5
186
330
1F
100
AcDbEntity
  8
0
  6
Continuous
 62
     7
100
AcDbLine
 10
134.0687538830358
 20
130.0388648865114
 30
0.0
 11
133.8187538830358
 21
129.788864885634
 31
0.0
  0
LINE
  5
187
330
1F
100
AcDbEntity
  8
0
  6
Continuous
 62
     7
100
AcDbLine
 10
135.3190885376389
 20
131.2891995411145
 30
0.0
 11
135.3187538830358
 21
131.2888648865114
 31
0.0
  0
LINE
  5
188
330
1F
100
AcDbEntity
  8
0
  6
Continuous
 62
     7
100
AcDbLine
 10
134.0687538830358
 20
135.5849192451844
 30
0.0
 11
134.0687538830358
 21
130.6976348618867
 31
0.0
  0
LINE
  5
189
330
1F
100
AcDbEntity
  8
0
  6
Continuous
 62
     7
100
AcDbLine
 10
134.0687538830358
 20
130.6976348618867
 30
0.0
 11
134.0687538830358
 21
130.0388648865114
 31
0.0
  0
LINE
  5
18A
330
1F
100
AcDbEntity
  8
0
  6
Continuous
 62
     7
100
AcDbLine
 10
134.0687538830358
 20
135.6888648865113
 30
0.0
 11
134.0687538830358
 21
135.5849192451844
 31
0.0
  0
LINE
  5
18B
330
1F
100
AcDbEntity
  8
0
  6
Continuous
 62
     2
100
AcDbLine
 10
134.0687538830358
 20
135.6888648865113
 30
0.0
 11
135.3187538830358
 21
135.6888648865113
 31
0.0
  0
LINE
  5
18C
330
1F
100
AcDbEntity
  8
0
  6
Continuous
 62
     7
100
AcDbLine
 10
135.3187538830358
 20
135.6888648865113
 30
0.0
 11
135.3187538830358
 21
131.2888648865114
 31
0.0
  0
LINE
  5
18D
330
1F
100
AcDbEntity
  8
0
  6
Continuous
 62
     7
100
AcDbLine
 10
164.0687538830358
 20
135.5849192451843
 30
0.0
 11
160.5687538830358
 21
135.5849192451844
 31
0.0
  0
LINE
  5
18E
330
1F
100
AcDbEntity
  8
0
  6
Continuous
 62
     7
100
AcDbLine
 10
164.0687538830358
 20
135.5849192451843
 30
0.0
 11
164.0687538830358
 21
134.1976348618867
 31
0.0
  0
LINE
  5
18F
330
1F
100
AcDbEntity
  8
0
  6
Continuous
 62
     2
100
AcDbLine
 10
160.5687538830358
 20
135.6888648865113
 30
0.0
 11
159.3187538830358
 21
135.6888648865113
 31
0.0
  0
LINE
  5
190
330
1F
100
AcDbEntity
  8
0
  6
Continuous
 62
     7
100
AcDbLine
 10
159.3187538830358
 20
131.2888648865114
 30
0.0
 11
159.3187538830358
 21
135.6888648865113
 31
0.0
  0
LINE
  5
191
330
1F
100
AcDbEntity
  8
0
  6
Continuous
 62
     7
100
AcDbLine
 10
160.5687538830358
 20
135.5849192451844
 30
0.0
 11
160.5687538830358
 21
130.6976348618867
 31
0.0
  0
LINE
  5
192
330
1F
100
AcDbEntity
  8
0
  6
Continuous
 62
     7
100
AcDbLine
 10
160.5687538830358
 20
130.6976348618867
 30
0.0
 11
160.5687538830358
 21
130.0388648865114
 31
0.0
  0
LINE
  5
193
330
1F
100
AcDbEntity
  8
0
  6
Continuous
 62
     7
100
AcDbLine
 10
160.5687538830358
 20
135.6888648865113
 30
0.0
 11
160.5687538830358
 21
135.5849192451844
 31
0.0
  0
LINE
  5
194
330
1F
100
AcDbEntity
  8
0
  6
Continuous
 62
     7
100
AcDbLine
 10
157.3186646805786
 20
129.7888648865113
 30
0.0
 11
137.3188430854929
 21
129.7888648865113
 31
0.0
  0
LINE
  5
195
330
1F
100
AcDbEntity
  8
0
  6
Continuous
 62
     7
100
AcDbLine
 10
156.1187538830358
 20
131.2888648865114
 30
0.0
 11
138.5187538830357
 21
131.2888648865114
 31
0.0
  0
LINE
  5
196
330
1F
100
AcDbEntity
  8
0
  6
Continuous
 62
     7
100
AcDbLine
 10
164.0687538830358
 20
137.1888648865113
 30
0.0
 11
160.5687538830358
 21
137.1888648865113
 31
0.0
  0
LINE
  5
197
330
1F
100
AcDbEntity
  8
0
  6
Continuous
 62
     7
100
AcDbLine
 10
164.0687538830358
 20
135.5849192451843
 30
0.0
 11
164.0687538830358
 21
137.1888648865113
 31
0.0
  0
LINE
  5
198
330
1F
100
AcDbEntity
  8
0
  6
Continuous
 62
     7
100
AcDbLine
 10
133.8187538830358
 20
125.7888648865114
 30
0.0
 11
133.8187538830358
 21
129.788864885634
 31
0.0
  0
LINE
  5
199
330
1F
100
AcDbEntity
  8
0
  6
Continuous
 62
     7
100
AcDbLine
 10
133.8187538830358
 20
125.7888648865114
 30
0.0
 11
137.3187538830358
 21
125.7888648865114
 31
0.0
  0
LINE
  5
19A
330
1F
100
AcDbEntity
  8
0
  6
Continuous
 62
     7
100
AcDbLine
 10
147.3187538830358
 20
160.8517856103415
 30
0.0
 11
142.2688927179509
 21
157.9384041689463
 31
0.0
  0
LINE
  5
19B
330
1F
100
AcDbEntity
  8
0
  6
Continuous
 62
     7
100
AcDbLine
 10
142.2688927179509
 20
157.7651670517367
 30
0.0
 11
147.3187538830358
 21
154.8517856103415
 31
0.0
  0
LINE
  5
19C
330
1F
100
AcDbEntity
  8
0
  6
Continuous
 62
     2
100
AcDbLine
 10
138.5187538768587
 20
174.4128563141284
 30
0.0
 11
138.5187538830357
 21
131.2888648865114
 31
0.0
  0
LINE
  5
19D
330
1F
100
AcDbEntity
  8
0
  6
Continuous
 62
     7
100
AcDbLine
 10
147.3187538830358
 20
155.0826830106461
 30
0.0
 11
142.5189760435638
 21
157.8517856103415
 31
0.0
  0
LINE
  5
19E
330
1F
100
AcDbEntity
  8
0
  6
Continuous
 62
     7
100
AcDbLine
 10
147.2186983737337
 20
155.7638303237585
 30
0.0
 11
145.9187538830357
 21
156.513798299161
 31
0.0
  0
LINE
  5
19F
330
1F
100
AcDbEntity
  8
0
  6
Continuous
 62
     7
100
AcDbLine
 10
145.71886490164
 20
156.1673240647416
 30
0.0
 11
147.0188093923379
 21
155.4173560893389
 31
0.0
  0
LINE
  5
1A0
330
1F
100
AcDbEntity
  8
0
  6
Continuous
 62
     7
100
AcDbLine
 10
146.7187538830357
 20
156.8603366539212
 30
0.0
 11
146.7187538830357
 21
158.8910160948828
 31
0.0
  0
LINE
  5
1A1
330
1F
100
AcDbEntity
  8
0
  6
Continuous
 62
     7
100
AcDbLine
 10
146.7187538830357
 20
158.8910160948828
 30
0.0
 11
147.2321513426574
 21
158.0017856103414
 31
0.0
  0
LINE
  5
1A2
330
1F
100
AcDbEntity
  8
0
  6
Continuous
 62
     7
100
AcDbLine
 10
147.3187538830358
 20
158.6517856103415
 30
0.0
 11
146.6154140932098
 21
159.8700058613048
 31
0.0
  0
LINE
  5
1A3
330
1F
100
AcDbEntity
  8
0
  6
Continuous
 62
     7
100
AcDbLine
 10
146.3187538830358
 20
159.7905159975622
 30
0.0
 11
146.3187538830358
 21
156.8603366539212
 31
0.0
  0
LINE
  5
1A4
330
1F
100
AcDbEntity
  8
0
  6
Continuous
 62
     7
100
AcDbLine
 10
144.7187538830357
 20
158.8437472449035
 30
0.0
 11
144.7187538830357
 21
156.8598239757794
 31
0.0
  0
LINE
  5
1A5
330
1F
100
AcDbEntity
  8
0
  6
Continuous
 62
     7
100
AcDbLine
 10
145.5187538830357
 20
159.3052857064419
 30
0.0
 11
145.5187538830357
 21
156.513798299161
 31
0.0
  0
LINE
  5
1A6
330
1F
100
AcDbEntity
  8
0
  6
Continuous
 62
     7
100
AcDbLine
 10
145.1187538830357
 20
156.8598239757794
 30
0.0
 11
145.1187538830358
 21
158.8437472449035
 31
0.0
  0
LINE
  5
1A7
330
1F
100
AcDbEntity
  8
0
  6
Continuous
 62
     7
100
AcDbLine
 10
145.9187538830357
 20
156.513798299161
 30
0.0
 11
145.9187538830357
 21
159.3052857064419
 31
0.0
  0
LINE
  5
1A8
330
1F
100
AcDbEntity
  8
0
  6
Continuous
 62
     7
100
AcDbLine
 10
147.3187538830358
 20
160.6208882100368
 30
0.0
 11
152.1185317225076
 21
157.8517856103415
 31
0.0
  0
LINE
  5
1A9
330
1F
100
AcDbEntity
  8
0
  6
Continuous
 62
     7
100
AcDbLine
 10
152.3686150481207
 20
157.9384041689464
 30
0.0
 11
147.3187538830358
 21
160.8517856103415
 31
0.0
  0
LINE
  5
1AA
330
1F
100
AcDbEntity
  8
0
  6
Continuous
 62
     7
100
AcDbLine
 10
149.7187538830357
 20
158.0517856103415
 30
0.0
 11
149.1187538830358
 21
158.0517856103414
 31
0.0
  0
LINE
  5
1AB
330
1F
100
AcDbEntity
  8
0
  6
Continuous
 62
     7
100
AcDbLine
 10
149.1187538830358
 20
158.0517856103414
 30
0.0
 11
149.1187538830358
 21
158.9590036907527
 31
0.0
  0
LINE
  5
1AC
330
1F
100
AcDbEntity
  8
0
  6
Continuous
 62
     7
100
AcDbLine
 10
149.1187538830358
 20
158.9590036907527
 30
0.0
 11
149.6188093923378
 21
158.6705101276937
 31
0.0
  0
LINE
  5
1AD
330
1F
100
AcDbEntity
  8
0
  6
Continuous
 62
     7
100
AcDbLine
 10
149.8186983737337
 20
159.0169843621134
 30
0.0
 11
149.0186983737336
 21
159.4785228236517
 31
0.0
  0
LINE
  5
1AE
330
1F
100
AcDbEntity
  8
0
  6
Continuous
 62
     7
100
AcDbLine
 10
147.4053564234142
 20
158.0017856103414
 30
0.0
 11
147.9187538830357
 21
158.8910160948828
 31
0.0
  0
LINE
  5
1AF
330
1F
100
AcDbEntity
  8
0
  6
Continuous
 62
     7
100
AcDbLine
 10
148.0220936728617
 20
159.8700058613048
 30
0.0
 11
147.3187538830358
 21
158.6517856103415
 31
0.0
  0
LINE
  5
1B0
330
1F
100
AcDbEntity
  8
0
  6
Continuous
 62
     7
100
AcDbLine
 10
142.5189760435638
 20
157.8517856103415
 30
0.0
 11
147.3187538830358
 21
160.6208882100368
 31
0.0
  0
LINE
  5
1B1
330
1F
100
AcDbEntity
  8
0
  6
Continuous
 62
     7
100
AcDbLine
 10
152.1185317225076
 20
157.8517856103415
 30
0.0
 11
147.3187538830358
 21
155.0826830106461
 31
0.0
  0
LINE
  5
1B2
330
1F
100
AcDbEntity
  8
0
  6
Continuous
 62
     7
100
AcDbLine
 10
147.3187538830358
 20
154.8517856103415
 30
0.0
 11
152.3686150481207
 21
157.7651670517366
 31
0.0
  0
LINE
  5
1B3
330
1F
100
AcDbEntity
  8
0
  6
Continuous
 62
     7
100
AcDbLine
 10
149.0186983737336
 20
156.2250483970313
 30
0.0
 11
149.8186983737336
 21
156.6865868585697
 31
0.0
  0
LINE
  5
1B4
330
1F
100
AcDbEntity
  8
0
  6
Continuous
 62
     7
100
AcDbLine
 10
149.6188093923379
 20
157.0330610929891
 30
0.0
 11
149.1187538830358
 21
156.7445675299303
 31
0.0
  0
LINE
  5
1B5
330
1F
100
AcDbEntity
  8
0
  6
Continuous
 62
     7
100
AcDbLine
 10
149.1187538830358
 20
156.7445675299303
 30
0.0
 11
149.1187538830358
 21
157.6517856103415
 31
0.0
  0
LINE
  5
1B6
330
1F
100
AcDbEntity
  8
0
  6
Continuous
 62
     7
100
AcDbLine
 10
149.1187538830358
 20
157.6517856103415
 30
0.0
 11
149.7187538830357
 21
157.6517856103416
 31
0.0
  0
LINE
  5
1B7
330
1F
100
AcDbEntity
  8
0
  6
Continuous
 62
     7
100
AcDbLine
 10
148.7187538830357
 20
159.3052857064419
 30
0.0
 11
148.7187538830357
 21
156.398285514241
 31
0.0
  0
LINE
  5
1B8
330
1F
100
AcDbEntity
  8
0
  6
Continuous
 62
     7
100
AcDbLine
 10
147.9187538830357
 20
158.8910160948828
 30
0.0
 11
147.9187538830357
 21
155.9367470527025
 31
0.0
  0
LINE
  5
1B9
330
1F
100
AcDbEntity
  8
0
  6
Continuous
 62
     7
100
AcDbLine
 10
148.3187538830358
 20
155.9367470527025
 30
0.0
 11
148.3187538830358
 21
159.7905159975622
 31
0.0
  0
LINE
  5
1BA
330
1F
100
AcDbEntity
  8
0
  6
Continuous
 62
     2
100
AcDbLine
 10
157.3186646805786
 20
129.7888648865113
 30
0.0
 11
156.1650321443052
 21
131.2891995411144
 31
0.0
  0
LINE
  5
1BB
330
1F
100
AcDbEntity
  8
0
  6
Continuous
 62
     7
100
AcDbLine
 10
159.3187538830358
 20
139.4388648865113
 30
0.0
 11
159.3187538830358
 21
174.4128563247071
 31
0.0
  0
LINE
  5
1BC
330
1F
100
AcDbEntity
  8
0
  6
Continuous
 62
     2
100
AcDbLine
 10
156.1187538830358
 20
131.2888648865114
 30
0.0
 11
156.1187538830151
 21
174.4128563261165
 31
0.0
  0
ARC
  5
1BD
330
1F
100
AcDbEntity
  8
0
  6
Continuous
 62
     7
100
AcDbCircle
 10
91.46875473980708
 20
134.4888648865114
 30
0.0
 40
3.200000000000102
100
AcDbArc
 50
270.0
 51
270.8286379657563
  0
ARC
  5
1BE
330
1F
100
AcDbEntity
  8
0
  6
Continuous
 62
     7
100
AcDbCircle
 10
73.86875473980706
 20
134.4888648865114
 30
0.0
 40
3.200000000000091
100
AcDbArc
 50
269.1713620342437
 51
270.0
  0
ARC
  5
1BF
330
1F
100
AcDbEntity
  8
0
  6
Continuous
 62
     7
100
AcDbCircle
 10
82.66875473980707
 20
135.6888648865113
 30
0.0
 40
2.5
100
AcDbArc
 50
0.0
 51
180.0
  0
ARC
  5
1C0
330
1F
100
AcDbEntity
  8
0
  6
Continuous
 62
     7
100
AcDbCircle
 10
82.66875473980707
 20
135.6888648865113
 30
0.0
 40
1.499999999999994
100
AcDbArc
 50
356.0263843561721
 51
183.973615643828
  0
ARC
  5
1C1
330
1F
100
AcDbEntity
  8
0
  6
Continuous
 62
     7
100
AcDbCircle
 10
82.66875473980707
 20
135.6888648865113
 30
0.0
 40
3.75
100
AcDbArc
 50
0.0
 51
180.0
  0
ARC
  5
1C2
330
1F
100
AcDbEntity
  8
0
  6
Continuous
 62
     7
100
AcDbCircle
 10
138.5187538830357
 20
134.4888648865114
 30
0.0
 40
3.20000000000009
100
AcDbArc
 50
269.1713620342447
 51
270.0
  0
ARC
  5
1C3
330
1F
100
AcDbEntity
  8
0
  6
Continuous
 62
     7
100
AcDbCircle
 10
142.3188649632998
 20
157.8517856103415
 30
0.0
 40
0.0999999999999279
100
AcDbArc
 50
119.9816393688331
 51
240.0183606311588
  0
ARC
  5
1C4
330
1F
100
AcDbEntity
  8
0
  6
Continuous
 62
     7
100
AcDbCircle
 10
146.5187538830357
 20
156.8603366539212
 30
0.0
 40
0.1999999999999034
100
AcDbArc
 50
180.0
 51
0.0
  0
ARC
  5
1C5
330
1F
100
AcDbEntity
  8
0
  6
Continuous
 62
     7
100
AcDbCircle
 10
145.9187538830357
 20
156.513798299161
 30
0.0
 40
0.3999999999999773
100
AcDbArc
 50
180.0
 51
240.018360631165
  0
ARC
  5
1C6
330
1F
100
AcDbEntity
  8
0
  6
Continuous
 62
     7
100
AcDbCircle
 10
144.9187538830357
 20
156.8598239757794
 30
0.0
 40
0.1999999999999886
100
AcDbArc
 50
180.0
 51
0.0
  0
ARC
  5
1C7
330
1F
100
AcDbEntity
  8
0
  6
Continuous
 62
     7
100
AcDbCircle
 10
146.4777336105209
 20
159.7905159975622
 30
0.0
 40
0.1589797274852067
100
AcDbArc
 50
29.9999999999963
 51
180.0
  0
ARC
  5
1C8
330
1F
100
AcDbEntity
  8
0
  6
Continuous
 62
     7
100
AcDbCircle
 10
144.9187538830357
 20
158.8437472449035
 30
0.0
 40
0.2000000000001023
100
AcDbArc
 50
0.0
 51
180.0
  0
ARC
  5
1C9
330
1F
100
AcDbEntity
  8
0
  6
Continuous
 62
     7
100
AcDbCircle
 10
145.7187538830357
 20
159.3052857064419
 30
0.0
 40
0.1999999999999886
100
AcDbArc
 50
0.0
 51
180.0
  0
ARC
  5
1CA
330
1F
100
AcDbEntity
  8
0
  6
Continuous
 62
     7
100
AcDbCircle
 10
149.7187538830357
 20
158.8437472449035
 30
0.0
 40
0.200000000000085
100
AcDbArc
 50
240.0183606311672
 51
60.0183606311542
  0
ARC
  5
1CB
330
1F
100
AcDbEntity
  8
0
  6
Continuous
 62
     7
100
AcDbCircle
 10
148.9187538830357
 20
159.3052857064419
 30
0.0
 40
0.2000000000000604
100
AcDbArc
 50
60.01836063116315
 51
180.0
  0
ARC
  5
1CC
330
1F
100
AcDbEntity
  8
0
  6
Continuous
 62
     7
100
AcDbCircle
 10
148.1597741555506
 20
159.7905159975622
 30
0.0
 40
0.1589797274852174
100
AcDbArc
 50
0.0
 51
149.9999999999986
  0
ARC
  5
1CD
330
1F
100
AcDbEntity
  8
0
  6
Continuous
 62
     7
100
AcDbCircle
 10
148.9187538830357
 20
156.398285514241
 30
0.0
 40
0.1999999999999886
100
AcDbArc
 50
180.0
 51
299.981639368849
  0
ARC
  5
1CE
330
1F
100
AcDbEntity
  8
0
  6
Continuous
 62
     7
100
AcDbCircle
 10
149.7187538830357
 20
156.8598239757794
 30
0.0
 40
0.1999999999999619
100
AcDbArc
 50
299.9816393688531
 51
119.9816393688209
  0
ARC
  5
1CF
330
1F
100
AcDbEntity
  8
0
  6
Continuous
 62
     7
100
AcDbCircle
 10
148.1187538830358
 20
155.9367470527025
 30
0.0
 40
0.2000000000001023
100
AcDbArc
 50
180.0
 51
0.0
  0
ARC
  5
1D0
330
1F
100
AcDbEntity
  8
0
  6
Continuous
 62
     7
100
AcDbCircle
 10
149.7187538830357
 20
157.8517856103415
 30
0.0
 40
0.1999999999999034
100
AcDbArc
 50
270.0
 51
90.0
  0
ARC
  5
1D1
330
1F
100
AcDbEntity
  8
0
  6
Continuous
 62
     7
100
AcDbCircle
 10
147.3187538830358
 20
158.0517856103414
 30
0.0
 40
0.0999999999999745
100
AcDbArc
 50
210.000000000016
 51
329.9999999999759
  0
ARC
  5
1D2
330
1F
100
AcDbEntity
  8
0
  6
Continuous
 62
     7
100
AcDbCircle
 10
147.1187538830358
 20
155.5905932065487
 30
0.0
 40
0.2000000000000604
100
AcDbArc
 50
240.0183606311631
 51
60.01836063116315
  0
ARC
  5
1D3
330
1F
100
AcDbEntity
  8
0
  6
Continuous
 62
     7
100
AcDbCircle
 10
152.3186428027718
 20
157.8517856103415
 30
0.0
 40
0.1000000000000018
100
AcDbArc
 50
299.9816393688086
 51
60.01836063119136
  0
ARC
  5
1D4
330
1F
100
AcDbEntity
  8
0
  6
Continuous
 62
     7
100
AcDbCircle
 10
156.1187538830358
 20
134.4888648865114
 30
0.0
 40
3.200000000000017
100
AcDbArc
 50
270.0
 51
270.8286379657568
  0
CIRCLE
  5
1D5
330
1F
100
AcDbEntity
  8
0
  6
Continuous
 62
     7
100
AcDbCircle
 10
147.3187538830358
 20
140.2888648865114
 30
0.0
 40
3.5
  0
CIRCLE
  5
1D6
330
1F
100
AcDbEntity
  8
0
  6
Continuous
 62
     7
100
AcDbCircle
 10
147.3187538830358
 20
140.2888648865114
 30
0.0
 40
1.599999999999994
  0
SPLINE
  5
1D7
330
1F
100
AcDbEntity
  8
0
  6
Continuous
 62
     7
100
AcDbSpline
210
0.0
220
0.0
230
1.0
 70
     8
 71
     3
 72
    25
 73
    21
 74
    19
 42
0.000000001
 43
0.0000000001
 44
0.00000001
 40
0.0
 40
0.0
 40
0.0
 40
0.0
 40
1.101416268120599
 40
2.213296577619609
 40
3.445623890292943
 40
4.866219325466342
 40
6.497238641134501
 40
8.327352962389117
 40
10.32301746094815
 40
12.43628433310288
 40
14.61044231034033
 40
16.78460028757776
 40
18.89786715973245
 40
20.89353165829158
 40
22.7236459795462
 40
24.35466529521433
 40
25.77526073038779
 40
27.00758804306106
 40
28.11946835256007
 40
29.22088462068068
 40
29.22088462068068
 40
29.22088462068068
 40
29.22088462068068
 10
188.4312189564371
 20
277.3678895132234
 30
0.0
 10
188.5201602864551
 20
277.0065997914137
 30
0.0
 10
188.6988879260587
 20
276.2805879027948
 30
0.0
 10
188.4002366499435
 20
275.1280489042854
 30
0.0
 10
187.6995430574146
 20
274.070600477485
 30
0.0
 10
186.6166404321773
 20
273.1187635464413
 30
0.0
 10
185.2047482159144
 20
272.295783983394
 30
0.0
 10
183.508407189863
 20
271.6236039704608
 30
0.0
 10
181.5881037339734
 20
271.1252859120701
 30
0.0
 10
179.5126005855675
 20
270.8186698326149
 30
0.0
 10
177.3578643762692
 20
270.7151778123082
 30
0.0
 10
175.2031281669709
 20
270.8186698326149
 30
0.0
 10
173.1276250185649
 20
271.1252859120702
 30
0.0
 10
171.2073215626754
 20
271.6236039704606
 30
0.0
 10
169.5109805366239
 20
272.295783983394
 30
0.0
 10
168.099088320361
 20
273.1187635464412
 30
0.0
 10
167.0161856951238
 20
274.070600477485
 30
0.0
 10
166.3154921025948
 20
275.1280489042854
 30
0.0
 10
166.0168408264795
 20
276.2805879027948
 30
0.0
 10
166.1955684660833
 20
277.0065997914137
 30
0.0
 10
166.2845097961013
 20
277.3678895132234
 30
0.0
 11
188.4312189564371
 21
277.3678895132234
 31
0.0
 11
188.6062752807953
 21
276.2804737238351
 31
0.0
 11
188.3582334858276
 21
275.1966134490891
 31
0.0
 11
187.6964215044823
 21
274.1570772527387
 31
0.0
 11
186.6457346754258
 21
273.200966079811
 31
0.0
 11
185.245691948721
 21
272.364243683173
 31
0.0
 11
183.5489562011265
 21
271.6783820142527
 31
0.0
 11
181.6193474296601
 21
271.1691799173843
 31
0.0
 11
179.5294470862789
 21
270.8557897183206
 31
0.0
 11
177.3578643762692
 21
270.75000025012
 31
0.0
 11
175.1862816662595
 21
270.8557897183206
 31
0.0
 11
173.0963813228783
 21
271.1691799173842
 31
0.0
 11
171.1667725514118
 21
271.6783820142527
 31
0.0
 11
169.4700368038173
 21
272.364243683173
 31
0.0
 11
168.0699940771125
 21
273.200966079811
 31
0.0
 11
167.019307248056
 21
274.1570772527388
 31
0.0
 11
166.3574952667108
 21
275.1966134490891
 31
0.0
 11
166.109453471743
 21
276.2804737238351
 31
0.0
 11
166.2845097961013
 21
277.3678895132234
 31
0.0
  0
SPLINE
  5
1D8
330
1F
100
AcDbEntity
  8
0
  6
Continuous
 62
     7
100
AcDbSpline
210
0.0
220
0.0
230
1.0
 70
     8
 71
     3
 72
    23
 73
    19
 74
    17
 42
0.000000001
 43
0.0000000001
 44
0.00000001
 40
0.0
 40
0.0
 40
0.0
 40
0.0
 40
2.390564805174733
 40
4.517373753390078
 40
7.006420414588823
 40
9.07618799767847
 40
10.39382667416433
 40
11.51088758279128
 40
12.34899079978148
 40
13.07508480910164
 40
13.72379197081124
 40
14.33911471894727
 40
15.05711307795784
 40
15.86598993510525
 40
17.16599161669725
 40
18.79246136365315
 40
20.2261548632281
 40
21.8798729744786
 40
21.8798729744786
 40
21.8798729744786
 40
21.8798729744786
 10
179.6206060716982
 20
258.7361643542307
 30
0.0
 10
179.8873629185248
 20
259.487091479266
 30
0.0
 10
180.3914448022136
 20
260.9060944138596
 30
0.0
 10
181.2460458896553
 20
263.0800595117188
 30
0.0
 10
182.1413778361628
 20
265.1218518498085
 30
0.0
 10
183.0463616163998
 20
266.8617905664531
 30
0.0
 10
183.8547527852393
 20
268.1291846004823
 30
0.0
 10
184.5347977472746
 20
268.9858455123731
 30
0.0
 10
185.1837706682452
 20
269.6050461797544
 30
0.0
 10
185.8016890007634
 20
270.0168230836271
 30
0.0
 10
186.4303292072694
 20
270.250916536262
 30
0.0
 10
187.0985247609887
 20
270.3006929538194
 30
0.0
 10
187.8038014519577
 20
270.1306096084776
 30
0.0
 10
188.6330018401952
 20
269.6655330642441
 30
0.0
 10
189.5548639068506
 20
268.813706927249
 30
0.0
 10
190.449290973082
 20
267.6640617794585
 30
0.0
 10
191.3032918246477
 20
266.3434957577257
 30
0.0
 10
191.7997605998902
 20
265.4417229172
 30
0.0
 10
192.0656854249347
 20
264.958704041231
 30
0.0
 11
179.6206060716982
 21
258.7361643542307
 31
0.0
 11
180.4340164307594
 21
260.9840886584395
 31
0.0
 11
181.2135678262944
 21
262.9628801909814
 31
0.0
 11
182.2248193339111
 21
265.23724244841
 31
0.0
 11
183.1943924574158
 21
267.0658664699605
 31
0.0
 11
183.9109458859324
 21
268.1716344693548
 31
0.0
 11
184.614622864037
 21
269.0391964476351
 31
0.0
 11
185.227583563887
 21
269.6107698760769
 31
0.0
 11
185.8373510918029
 21
270.0049729625785
 31
0.0
 11
186.4479482991468
 21
270.2240438028004
 31
0.0
 11
187.0616675865352
 21
270.2684366124795
 31
0.0
 11
187.7617594841769
 21
270.1090848650289
 31
0.0
 11
188.4745044965949
 21
269.7266239935336
 31
0.0
 11
189.4502364300959
 21
268.8675829190631
 31
0.0
 11
190.4681161229817
 21
267.5989912707299
 31
0.0
 11
191.2498736735305
 21
266.3971875495434
 31
0.0
 11
192.0656854249347
 21
264.958704041231
 31
0.0
  0
SPLINE
  5
1D9
330
1F
100
AcDbEntity
  8
0
  6
Continuous
 62
     7
100
AcDbSpline
210
0.0
220
0.0
230
1.0
 70
     8
 71
     3
 72
     9
 73
     5
 74
     3
 42
0.000000001
 43
0.0000000001
 44
0.00000001
 40
0.0
 40
0.0
 40
0.0
 40
0.0
 40
0.0049484547557391
 40
0.0099499281241541
 40
0.0099499281241541
 40
0.0099499281241541
 40
0.0099499281241541
 10
189.6354545047385
 20
249.2562306323702
 30
0.0
 10
189.6339512579738
 20
249.256920104051
 30
0.0
 10
189.6309286512708
 20
249.2583064159235
 30
0.0
 10
189.6276945359367
 20
249.2590805315436
 30
0.0
 10
189.6260688587458
 20
249.2594696422399
 30
0.0
 11
189.6354545047385
 21
249.2562306323702
 31
0.0
 11
189.6308924454811
 21
249.258147616002
 31
0.0
 11
189.6260688587458
 21
249.2594696422399
 31
0.0
  0
SPLINE
  5
1DA
330
1F
100
AcDbEntity
  8
0
  6
Continuous
 62
     7
100
AcDbSpline
210
0.0
220
0.0
230
1.0
 70
     8
 71
     3
 72
    13
 73
     9
 74
     7
 42
0.000000001
 43
0.0000000001
 44
0.00000001
 40
0.0
 40
0.0
 40
0.0
 40
0.0
 40
0.0316824590790106
 40
0.0636242999323209
 40
0.093814074315755
 40
0.1206633931325505
 40
0.1435786990420097
 40
0.1636451356209147
 40
0.1636451356209147
 40
0.1636451356209147
 40
0.1636451356209147
 10
189.6260688587458
 20
249.1094418978578
 30
0.0
 10
189.6323080346723
 20
249.1180069719294
 30
0.0
 10
189.6448374565901
 20
249.1352072477927
 30
0.0
 10
189.6565438791423
 20
249.1645103732513
 30
0.0
 10
189.6623204948406
 20
249.1938794669545
 30
0.0
 10
189.6608869400706
 20
249.2205849391117
 30
0.0
 10
189.6527637965146
 20
249.2435888921556
 30
0.0
 10
189.6409635617451
 20
249.2522071304234
 30
0.0
 10
189.6354545047385
 20
249.2562306323702
 30
0.0
 11
189.6260688587458
 21
249.1094418978578
 31
0.0
 11
189.6436481725978
 21
249.1357999233118
 31
0.0
 11
189.6557794716486
 21
249.1653484040338
 31
0.0
 11
189.6612135150113
 21
249.1950450985281
 31
0.0
 11
189.6593910545642
 21
249.2218324953982
 31
0.0
 11
189.6504994850817
 21
249.2429524293874
 31
0.0
 11
189.6354545047385
 21
249.2562306323702
 31
0.0
  0
SPLINE
  5
1DB
330
1F
100
AcDbEntity
  8
0
  6
Continuous
 62
     7
100
AcDbSpline
210
0.0
220
0.0
230
1.0
 70
     8
 71
     3
 72
    21
 73
    17
 74
    15
 42
0.000000001
 43
0.0000000001
 44
0.00000001
 40
0.0
 40
0.0
 40
0.0
 40
0.0
 40
0.4849356750664906
 40
1.006691257445096
 40
1.588945993296863
 40
2.238798096832918
 40
2.949850570415102
 40
3.706413029100394
 40
4.487087958572153
 40
5.267762888043998
 40
6.024325346729256
 40
6.735377820311429
 40
7.385229923847576
 40
7.967484659699342
 40
8.489240242077939
 40
8.974175917144391
 40
8.974175917144391
 40
8.974175917144391
 40
8.974175917144391
 10
187.4083933347575
 20
235.4256859072964
 30
0.0
 10
187.5455086203469
 20
235.3368663261359
 30
0.0
 10
187.8301499890056
 20
235.1524833114878
 30
0.0
 10
188.1161004217861
 20
234.6892350320599
 30
0.0
 10
188.2890483310374
 20
234.1274941175957
 30
0.0
 10
188.3378029080241
 20
233.4764623340297
 30
0.0
 10
188.2652934945782
 20
232.7715276207109
 30
0.0
 10
188.0748295488193
 20
232.0438679008749
 30
0.0
 10
187.7759951232499
 20
231.3287660524256
 30
0.0
 10
187.3832142998322
 20
230.6606374029005
 30
0.0
 10
186.9153648914185
 20
230.0716704143917
 30
0.0
 10
186.3949227688313
 20
229.5907020556439
 30
0.0
 10
185.8448445957863
 20
229.2390866470935
 30
0.0
 10
185.2916831186641
 20
229.0404004258161
 30
0.0
 10
184.7495142354535
 20
228.9912118043838
 30
0.0
 10
184.4312230025398
 20
229.1082950905217
 30
0.0
 10
184.2778981662578
 20
229.164695570297
 30
0.0
 11
187.4083933347575
 21
235.4256859072964
 31
0.0
 11
187.795728176135
 21
235.1339080211325
 31
0.0
 11
188.0851527838491
 21
234.6997855820474
 31
0.0
 11
188.2621533350226
 21
234.1450862212156
 31
0.0
 11
188.3178552435756
 21
233.4976257576723
 31
0.0
 11
188.2494643746159
 21
232.7898699335265
 31
0.0
 11
188.0604111378797
 21
232.0573089309111
 31
0.0
 11
187.7601744991433
 21
231.3366763644789
 31
0.0
 11
187.3638104292394
 21
230.6641075136305
 31
0.0
 11
186.8911935691888
 21
230.0733283226723
 31
0.0
 11
186.366023431248
 21
229.593962133017
 31
0.0
 11
185.8146339152815
 21
229.2500473817335
 31
0.0
 11
185.2646740959119
 21
229.0588282061731
 31
0.0
 11
184.7437213800154
 21
229.0298944288934
 31
0.0
 11
184.2778981662578
 21
229.164695570297
 31
0.0
  0
SPLINE
  5
1DC
330
1F
100
AcDbEntity
  8
0
  6
Continuous
 62
     7
100
AcDbSpline
210
0.0
220
0.0
230
1.0
 70
     8
 71
     3
 72
    17
 73
    13
 74
    11
 42
0.000000001
 43
0.0000000001
 44
0.00000001
 40
0.0
 40
0.0
 40
0.0
 40
0.0
 40
0.7119929572249325
 40
1.470845478331182
 40
2.25501815540369
 40
3.040082336926554
 40
3.801511403618722
 40
4.51746213022226
 40
5.171832543603428
 40
5.757924393511971
 40
6.282746500348659
 40
6.770212445331303
 40
6.770212445331303
 40
6.770212445331303
 40
6.770212445331303
 10
183.3682720163548
 20
231.0577538717202
 30
0.0
 10
183.3813587111868
 20
231.2952507288271
 30
0.0
 10
183.4083934096375
 20
231.7858752131785
 30
0.0
 10
183.6031170590069
 20
232.5167268641971
 30
0.0
 10
183.8971684679048
 20
233.236622005243
 30
0.0
 10
184.2896851339152
 20
233.9102196740538
 30
0.0
 10
184.7578804317252
 20
234.5048443366212
 30
0.0
 10
185.2800158070707
 20
234.9910679311313
 30
0.0
 10
185.8325705944743
 20
235.3470905324453
 30
0.0
 10
186.3886734950302
 20
235.5488939356886
 30
0.0
 10
186.9340511400767
 20
235.5998355285585
 30
0.0
 10
187.254217606398
 20
235.4822898680269
 30
0.0
 10
187.4083933347575
 20
235.4256859072964
 30
0.0
 11
183.3682720163548
 21
231.0577538717202
 31
0.0
 11
183.4309585941172
 21
231.766981871255
 31
0.0
 11
183.615841700294
 21
232.5029678649697
 31
0.0
 11
183.9135564767232
 21
233.2284282009124
 31
0.0
 11
184.3090203477438
 21
233.9066126122842
 31
0.0
 11
184.7822005644757
 21
234.5031649620389
 31
0.0
 11
185.3091261210862
 21
234.987865798036
 31
0.0
 11
185.8631042602705
 21
235.3361600108099
 31
0.0
 11
186.416071341669
 21
235.5304048634129
 31
0.0
 11
186.9400149265336
 21
235.5607589291832
 31
0.0
 11
187.4083933347575
 21
235.4256859072964
 31
0.0
  0
SPLINE
  5
1DD
330
1F
100
AcDbEntity
  8
0
  6
Continuous
 62
     7
100
AcDbSpline
210
0.0
220
0.0
230
1.0
 70
     8
 71
     3
 72
    15
 73
    11
 74
     9
 42
0.000000001
 43
0.0000000001
 44
0.00000001
 40
0.0
 40
0.0
 40
0.0
 40
0.0
 40
0.3264636540721468
 40
0.6943666027274187
 40
1.094831376582981
 40
1.512976941301263
 40
1.931122506019597
 40
2.331587279875178
 40
2.699490228530433
 40
3.025953882602578
 40
3.025953882602578
 40
3.025953882602578
 40
3.025953882602578
 10
184.7061773220553
 20
234.4190018629488
 30
0.0
 10
184.7348560451479
 20
234.3134341712589
 30
0.0
 10
184.7958537793165
 20
234.0888986687553
 30
0.0
 10
184.7774712664611
 20
233.7193660700839
 30
0.0
 10
184.6931145513495
 20
233.3320023988567
 30
0.0
 10
184.5372141739899
 20
232.9481565270556
 30
0.0
 10
184.3236777029648
 20
232.5931287020872
 30
0.0
 10
184.06440079505
 20
232.2932251272618
 30
0.0
 10
183.7798042238261
 20
232.0567995577742
 30
0.0
 10
183.563577181322
 20
231.9708764436072
 30
0.0
 10
183.4619157941146
 20
231.9304788070674
 30
0.0
 11
184.7061773220553
 21
234.4190018629488
 31
0.0
 11
184.776152749908
 21
234.1001257785243
 31
0.0
 11
184.7684516637017
 21
233.7323034391993
 31
0.0
 11
184.6836045763869
 21
233.3409302054727
 31
0.0
 11
184.5274708208377
 21
232.9530282036317
 31
0.0
 11
184.3108294726944
 21
232.5953799980878
 31
0.0
 11
184.048639138102
 21
232.2926783879999
 31
0.0
 11
183.7590019183659
 21
232.0658241154399
 31
0.0
 11
183.4619157941146
 21
231.9304788070674
 31
0.0
  0
SPLINE
  5
1DE
330
1F
100
AcDbEntity
  8
0
  6
Continuous
 62
     7
100
AcDbSpline
210
0.0
220
0.0
230
1.0
 70
     8
 71
     3
 72
    15
 73
    11
 74
     9
 42
0.000000001
 43
0.0000000001
 44
0.00000001
 40
0.0
 40
0.0
 40
0.0
 40
0.0
 40
0.2732500151823169
 40
0.5826655013808067
 40
0.9345284279961936
 40
1.323443829097742
 40
1.73652026157379
 40
2.156851992014122
 40
2.56642996478758
 40
2.948896521722737
 40
2.948896521722737
 40
2.948896521722737
 40
2.948896521722737
 10
183.4255162325796
 20
231.7345281772865
 30
0.0
 10
183.517184931837
 20
231.7256560157707
 30
0.0
 10
183.7126549610776
 20
231.7067374511209
 30
0.0
 10
184.0126881471396
 20
231.818770242181
 30
0.0
 10
184.3055982974561
 20
232.0123259460723
 30
0.0
 10
184.5776322343359
 20
232.2881963307276
 30
0.0
 10
184.8116510886922
 20
232.6239497426612
 30
0.0
 10
184.990465406343
 20
232.9990401355058
 30
0.0
 10
185.1107419436309
 20
233.3882851867413
 30
0.0
 10
185.1278012768407
 20
233.6525199365738
 30
0.0
 10
185.1360389693211
 20
233.7801149792884
 30
0.0
 11
183.4255162325796
 21
231.7345281772865
 31
0.0
 11
183.698674163995
 21
231.7274346441164
 31
0.0
 11
183.9929590143769
 21
231.8230085670004
 31
0.0
 11
184.2880523158618
 21
232.0146526701038
 31
0.0
 11
184.5635797571447
 21
232.289133667732
 31
0.0
 11
184.8005173379531
 21
232.6275013994195
 31
0.0
 11
184.9825066374275
 21
233.0063927537085
 31
0.0
 11
185.0969814150533
 21
233.3996479368535
 31
0.0
 11
185.1360389693211
 21
233.7801149792884
 31
0.0
  0
SPLINE
  5
1DF
330
1F
100
AcDbEntity
  8
0
  6
Continuous
 62
     7
100
AcDbSpline
210
0.0
220
0.0
230
1.0
 70
     8
 71
     3
 72
    11
 73
     7
 74
     5
 42
0.000000001
 43
0.0000000001
 44
0.00000001
 40
0.0
 40
0.0
 40
0.0
 40
0.0
 40
0.2455947334511638
 40
0.4702357445786266
 40
0.6748777152680379
 40
0.8638729673838654
 40
0.8638729673838654
 40
0.8638729673838654
 40
0.8638729673838654
 10
185.1360389693211
 20
233.7801149792884
 30
0.0
 10
185.1327206173213
 20
233.8621609483565
 30
0.0
 10
185.1263670150322
 20
234.01925286341
 30
0.0
 10
185.0683922038451
 20
234.2378801507745
 30
0.0
 10
184.978757683134
 20
234.4269552172426
 30
0.0
 10
184.8857523314884
 20
234.520688269882
 30
0.0
 10
184.841098088959
 20
234.5656918900453
 30
0.0
 11
185.1360389693211
 21
233.7801149792884
 31
0.0
 11
185.1167981598709
 21
234.0249548535168
 31
0.0
 11
185.0597303179482
 21
234.2422262189409
 31
0.0
 11
184.9667763636657
 21
234.4245388618929
 31
0.0
 11
184.841098088959
 21
234.5656918900453
 31
0.0
  0
SPLINE
  5
1E0
330
1F
100
AcDbEntity
  8
0
  6
Continuous
 62
     7
100
AcDbSpline
210
0.0
220
0.0
230
1.0
 70
     8
 71
     3
 72
    11
 73
     7
 74
     5
 42
0.000000001
 43
0.0000000001
 44
0.00000001
 40
0.0
 40
0.0
 40
0.0
 40
0.0
 40
0.4786126554224842
 40
0.9927250820982688
 40
1.565429375005516
 40
2.204028707785325
 40
2.204028707785325
 40
2.204028707785325
 40
2.204028707785325
 10
184.2778981662578
 20
229.164695570297
 30
0.0
 10
184.1423984040148
 20
229.2521257673775
 30
0.0
 10
183.8613485680386
 20
229.4334710664451
 30
0.0
 10
183.5779428057218
 20
229.8876893161829
 30
0.0
 10
183.3979796714472
 20
230.4390451965909
 30
0.0
 10
183.3785273000852
 20
230.8441713449181
 30
0.0
 10
183.3682720163548
 20
231.0577538717202
 30
0.0
 11
184.2778981662578
 21
229.164695570297
 31
0.0
 11
183.8949512115898
 21
229.4517873787195
 31
0.0
 11
183.6072130442633
 21
229.8778370686207
 31
0.0
 11
183.4287463588155
 21
230.4220244006017
 31
0.0
 11
183.3682720163548
 21
231.0577538717202
 31
0.0
  0
SPLINE
  5
1E1
330
1F
100
AcDbEntity
  8
0
  6
Continuous
 62
     7
100
AcDbSpline
210
0.0
220
0.0
230
1.0
 70
     8
 71
     3
 72
    17
 73
    13
 74
    11
 42
0.000000001
 43
0.0000000001
 44
0.00000001
 40
0.0
 40
0.0
 40
0.0
 40
0.0
 40
0.6697659424448735
 40
1.3821675215757
 40
2.119460870743231
 40
2.861360933372781
 40
3.587133047502669
 40
4.277644297298091
 40
4.9175591370144
 40
5.497895378619587
 40
6.019096032859085
 40
6.494146477268976
 40
6.494146477268976
 40
6.494146477268976
 40
6.494146477268976
 10
187.8230447378301
 20
233.7801149792884
 30
0.0
 10
187.8114547866609
 20
233.5567142812499
 30
0.0
 10
187.7875370835892
 20
233.0956917527693
 30
0.0
 10
187.6140264302126
 20
232.4067569902578
 30
0.0
 10
187.3507071539787
 20
231.7238716490256
 30
0.0
 10
186.9970932831786
 20
231.0769345642863
 30
0.0
 10
186.5718801866178
 20
230.493957430932
 30
0.0
 10
186.0926391022453
 20
230.0007934639558
 30
0.0
 10
185.5793492004225
 20
229.6170323103989
 30
0.0
 10
185.054017128787
 20
229.3653090767425
 30
0.0
 10
184.5322586192201
 20
229.2402947686228
 30
0.0
 10
184.2013155711536
 20
229.2906330932185
 30
0.0
 10
184.0435093292666
 20
229.3146363298527
 30
0.0
 11
187.8230447378301
 21
233.7801149792884
 31
0.0
 11
187.7673214304147
 21
233.1126711068679
 31
0.0
 11
187.6026615204869
 21
232.4195599176871
 31
0.0
 11
187.3364791236543
 21
231.7319928925638
 31
0.0
 11
186.9807613556666
 21
231.0809317798301
 31
0.0
 11
186.5515260317631
 21
230.495694906223
 31
0.0
 11
186.0681025073548
 21
230.00263559768
 31
0.0
 11
185.5522595799329
 21
229.6239575344768
 31
0.0
 11
185.0272263533618
 21
229.3767121841413
 31
0.0
 11
184.5166456599975
 21
229.2720341819837
 31
0.0
 11
184.0435093292666
 21
229.3146363298527
 31
0.0
  0
SPLINE
  5
1E2
330
1F
100
AcDbEntity
  8
0
  6
Continuous
 62
     7
100
AcDbSpline
210
0.0
220
0.0
230
1.0
 70
     8
 71
     3
 72
    11
 73
     7
 74
     5
 42
0.000000001
 43
0.0000000001
 44
0.00000001
 40
0.0
 40
0.0
 40
0.0
 40
0.0
 40
0.4211322656093322
 40
0.8770999470766813
 40
1.378643061270385
 40
1.928277124888746
 40
1.928277124888746
 40
1.928277124888746
 40
1.928277124888746
 10
187.1478074249183
 20
235.523232521156
 30
0.0
 10
187.2498681898534
 20
235.4254636502248
 30
0.0
 10
187.4624320188086
 20
235.2218386070651
 30
0.0
 10
187.6681065999574
 20
234.802465038974
 30
0.0
 10
187.8009201134029
 20
234.3149683755545
 30
0.0
 10
187.8154483148304
 20
233.9637553978605
 30
0.0
 10
187.8230447378301
 20
233.7801149792884
 30
0.0
 11
187.1478074249183
 21
235.523232521156
 31
0.0
 11
187.4351520212142
 21
235.2153600314836
 31
0.0
 11
187.6480484906266
 21
234.8121459162895
 31
0.0
 11
187.7789019110644
 21
234.3279735503827
 31
0.0
 11
187.8230447378301
 21
233.7801149792884
 31
0.0
  0
SPLINE
  5
1E3
330
1F
100
AcDbEntity
  8
0
  6
Continuous
 62
     7
100
AcDbSpline
210
0.0
220
0.0
230
1.0
 70
     8
 71
     3
 72
    13
 73
     9
 74
     7
 42
0.000000001
 43
0.0000000001
 44
0.00000001
 40
0.0
 40
0.0
 40
0.0
 40
0.0
 40
0.047082800359336
 40
0.1026905262458761
 40
0.1688054830951767
 40
0.2420451263127503
 40
0.3164467628746439
 40
0.3856808178846451
 40
0.3856808178846451
 40
0.3856808178846451
 40
0.3856808178846451
 10
185.0133496540651
 20
248.2710282539846
 30
0.0
 10
184.9978188561554
 20
248.2752188344978
 30
0.0
 10
184.9639452153908
 20
248.2843587370558
 30
0.0
 10
184.9092772674126
 20
248.2606345185211
 30
0.0
 10
184.8595067567424
 20
248.2186847119991
 30
0.0
 10
184.8182683439948
 20
248.1597076867654
 30
0.0
 10
184.789055675108
 20
248.0924747612922
 30
0.0
 10
184.784622441931
 20
248.0445381409354
 30
0.0
 10
184.7824855787279
 20
248.021432137666
 30
0.0
 11
185.0133496540651
 21
248.2710282539846
 31
0.0
 11
184.9668869861322
 21
248.2786447574513
 31
0.0
 11
184.914421956934
 21
248.2602154094083
 31
0.0
 11
184.8632816309715
 21
248.2183124900116
 31
0.0
 11
184.8206079067581
 21
248.1587893969557
 31
0.0
 11
184.7923612646593
 21
248.0899582231183
 31
0.0
 11
184.7824855787279
 21
248.021432137666
 31
0.0
  0
SPLINE
  5
1E4
330
1F
100
AcDbEntity
  8
0
  6
Continuous
 62
     7
100
AcDbSpline
210
0.0
220
0.0
230
1.0
 70
     8
 71
     3
 72
    11
 73
     7
 74
     5
 42
0.000000001
 43
0.0000000001
 44
0.00000001
 40
0.0
 40
0.0
 40
0.0
 40
0.0
 40
0.0364913913910236
 40
0.0692173485253808
 40
0.0985951978665108
 40
0.1259444898792245
 40
0.1259444898792245
 40
0.1259444898792245
 40
0.1259444898792245
 10
185.0653282912025
 20
248.1628534939033
 30
0.0
 10
185.0647422749741
 20
248.1750582100371
 30
0.0
 10
185.0636306976213
 20
248.1982082735471
 30
0.0
 10
185.0533470959602
 20
248.229714324112
 30
0.0
 10
185.0371524773045
 20
248.2556696448543
 30
0.0
 10
185.0210924968906
 20
248.2660322431946
 30
0.0
 10
185.0133496540651
 20
248.2710282539846
 30
0.0
 11
185.0653282912025
 21
248.1628534939033
 31
0.0
 11
185.0618726144904
 21
248.1991808922529
 31
0.0
 11
185.0516745181791
 21
248.2302773112233
 31
0.0
 11
185.0352323371891
 21
248.2546230077891
 31
0.0
 11
185.0133496540651
 21
248.2710282539846
 31
0.0
  0
SPLINE
  5
1E5
330
1F
100
AcDbEntity
  8
0
  6
Continuous
 62
     7
100
AcDbSpline
210
0.0
220
0.0
230
1.0
 70
     8
 71
     3
 72
    13
 73
     9
 74
     7
 42
0.000000001
 43
0.0000000001
 44
0.00000001
 40
0.0
 40
0.0
 40
0.0
 40
0.0
 40
0.0470828003594155
 40
0.1026905262459904
 40
0.168805483095345
 40
0.2420451263129749
 40
0.3164467628749009
 40
0.3856808178848981
 40
0.3856808178848981
 40
0.3856808178848981
 40
0.3856808178848981
 10
184.447664229116
 20
247.5884815089942
 30
0.0
 10
184.4321334312062
 20
247.5926720895074
 30
0.0
 10
184.3982597904415
 20
247.6018119920654
 30
0.0
 10
184.3435918424633
 20
247.5780877735307
 30
0.0
 10
184.2938213317931
 20
247.5361379670086
 30
0.0
 10
184.2525829190456
 20
247.4771609417749
 30
0.0
 10
184.2233702501585
 20
247.4099280163017
 30
0.0
 10
184.2189370169816
 20
247.361991395945
 30
0.0
 10
184.2168001537785
 20
247.3388853926755
 30
0.0
 11
184.447664229116
 21
247.5884815089942
 31
0.0
 11
184.401201561183
 21
247.5960980124609
 31
0.0
 11
184.3487365319847
 21
247.577668664418
 31
0.0
 11
184.2975962060222
 21
247.5357657450211
 31
0.0
 11
184.2549224818088
 21
247.4762426519652
 31
0.0
 11
184.2266758397099
 21
247.4074114781278
 31
0.0
 11
184.2168001537785
 21
247.3388853926755
 31
0.0
  0
SPLINE
  5
1E6
330
1F
100
AcDbEntity
  8
0
  6
Continuous
 62
     7
100
AcDbSpline
210
0.0
220
0.0
230
1.0
 70
     8
 71
     3
 72
    13
 73
     9
 74
     7
 42
0.000000001
 43
0.0000000001
 44
0.00000001
 40
0.0
 40
0.0
 40
0.0
 40
0.0
 40
0.0316824590790027
 40
0.0636242999322496
 40
0.0938140743156786
 40
0.1206633931324457
 40
0.1435786990418264
 40
0.1636451356206888
 40
0.1636451356206888
 40
0.1636451356206888
 40
0.1636451356206888
 10
182.2723546766256
 20
245.7947445855357
 30
0.0
 10
182.266115500699
 20
245.786179511464
 30
0.0
 10
182.2535860787813
 20
245.7689792356009
 30
0.0
 10
182.2418796562291
 20
245.7396761101423
 30
0.0
 10
182.2361030405308
 20
245.710307016439
 30
0.0
 10
182.237536595301
 20
245.683601544282
 30
0.0
 10
182.2456597388569
 20
245.6605975912381
 30
0.0
 10
182.2574599736263
 20
245.6519793529703
 30
0.0
 10
182.2629690306329
 20
245.6479558510235
 30
0.0
 11
182.2723546766256
 21
245.7947445855357
 31
0.0
 11
182.2547753627736
 21
245.7683865600817
 31
0.0
 11
182.2426440637228
 21
245.7388380793598
 31
0.0
 11
182.2372100203601
 21
245.7091413848655
 31
0.0
 11
182.2390324808073
 21
245.6823539879954
 31
0.0
 11
182.2479240502898
 21
245.6612340540063
 31
0.0
 11
182.2629690306329
 21
245.6479558510235
 31
0.0
  0
SPLINE
  5
1E7
330
1F
100
AcDbEntity
  8
0
  6
Continuous
 62
     7
100
AcDbSpline
210
0.0
220
0.0
230
1.0
 70
     8
 71
     3
 72
    13
 73
     9
 74
     7
 42
0.000000001
 43
0.0000000001
 44
0.00000001
 40
0.0
 40
0.0
 40
0.0
 40
0.0
 40
0.0374260526608321
 40
0.0816285563914906
 40
0.1341832453891791
 40
0.1924013379792188
 40
0.2515430978372264
 40
0.3065771550324937
 40
0.3065771550324937
 40
0.3065771550324937
 40
0.3065771550324937
 10
185.5316845425933
 20
248.922900221705
 30
0.0
 10
185.5193391328896
 20
248.9262313083389
 30
0.0
 10
185.4924130227495
 20
248.9334966010656
 30
0.0
 10
185.4489575456118
 20
248.9146382568931
 30
0.0
 10
185.4093950345519
 20
248.881292412761
 30
0.0
 10
185.376614675997
 20
248.8344116560386
 30
0.0
 10
185.3533935670459
 20
248.7809682941318
 30
0.0
 10
185.3498695933629
 20
248.7428635398537
 30
0.0
 10
185.3481710036772
 20
248.7244966089365
 30
0.0
 11
185.5316845425933
 21
248.922900221705
 31
0.0
 11
185.4947514311623
 21
248.9289545699326
 31
0.0
 11
185.4530470509401
 21
248.9143051062846
 31
0.0
 11
185.412395675515
 21
248.8809965327519
 31
0.0
 11
185.3784743902839
 21
248.8336817071865
 31
0.0
 11
185.3560211729677
 21
248.7789679008907
 31
0.0
 11
185.3481710036772
 21
248.7244966089365
 31
0.0
  0
SPLINE
  5
1E8
330
1F
100
AcDbEntity
  8
0
  6
Continuous
 62
     7
100
AcDbSpline
210
0.0
220
0.0
230
1.0
 70
     8
 71
     3
 72
     9
 73
     5
 74
     3
 42
0.000000001
 43
0.0000000001
 44
0.00000001
 40
0.0
 40
0.0
 40
0.0
 40
0.0
 40
0.0186490852504659
 40
0.0363892922797013
 40
0.0363892922797013
 40
0.0363892922797013
 40
0.0363892922797013
 10
185.5579414499995
 20
248.8982220734421
 30
0.0
 10
185.5543359776061
 20
248.9033807274771
 30
0.0
 10
185.54730073408
 20
248.9134466109302
 30
0.0
 10
185.5368025409539
 20
248.9198019344056
 30
0.0
 10
185.5316845425933
 20
248.922900221705
 30
0.0
 11
185.5579414499995
 21
248.8982220734421
 31
0.0
 11
185.5462155012363
 21
248.9127234719369
 31
0.0
 11
185.5316845425933
 21
248.922900221705
 31
0.0
  0
SPLINE
  5
1E9
330
1F
100
AcDbEntity
  8
0
  6
Continuous
 62
     7
100
AcDbSpline
210
0.0
220
0.0
230
1.0
 70
     8
 71
     3
 72
     9
 73
     5
 74
     3
 42
0.000000001
 43
0.0000000001
 44
0.00000001
 40
0.0
 40
0.0
 40
0.0
 40
0.0
 40
0.0098969101623416
 40
0.0198998575500733
 40
0.0198998575500733
 40
0.0198998575500733
 40
0.0198998575500733
 10
185.7911671133704
 20
245.6550509458382
 30
0.0
 10
185.7881606196433
 20
245.6564298892905
 30
0.0
 10
185.7821154129658
 20
245.6592025318266
 30
0.0
 10
185.7756471759785
 20
245.6607507441341
 30
0.0
 10
185.7723958213852
 20
245.6615289655776
 30
0.0
 11
185.7911671133704
 21
245.6550509458382
 31
0.0
 11
185.7820429948557
 21
245.6588849131017
 31
0.0
 11
185.7723958213852
 21
245.6615289655776
 31
0.0
  0
SPLINE
  5
1EA
330
1F
100
AcDbEntity
  8
0
  6
Continuous
 62
     7
100
AcDbSpline
210
0.0
220
0.0
230
1.0
 70
     8
 71
     3
 72
    13
 73
     9
 74
     7
 42
0.000000001
 43
0.0000000001
 44
0.00000001
 40
0.0
 40
0.0
 40
0.0
 40
0.0
 40
0.0470828003592472
 40
0.1026905262458047
 40
0.1688054830951633
 40
0.2420451263127238
 40
0.3164467628746391
 40
0.3856808178846403
 40
0.3856808178846403
 40
0.3856808178846403
 40
0.3856808178846403
 10
185.4001496408145
 20
246.0787120996177
 30
0.0
 10
185.4156804387241
 20
246.0745215191045
 30
0.0
 10
185.4495540794889
 20
246.0653816165466
 30
0.0
 10
185.5042220274669
 20
246.0891058350812
 30
0.0
 10
185.5539925381372
 20
246.1310556416032
 30
0.0
 10
185.5952309508848
 20
246.190032666837
 30
0.0
 10
185.6244436197719
 20
246.2572655923101
 30
0.0
 10
185.6288768529487
 20
246.3052022126668
 30
0.0
 10
185.6310137161518
 20
246.3283082159363
 30
0.0
 11
185.4001496408145
 21
246.0787120996177
 31
0.0
 11
185.4466123087473
 21
246.071095596151
 31
0.0
 11
185.4990773379456
 21
246.089524944194
 31
0.0
 11
185.5502176639081
 21
246.1314278635907
 31
0.0
 11
185.5928913881215
 21
246.1909509566466
 31
0.0
 11
185.6211380302204
 21
246.259782130484
 31
0.0
 11
185.6310137161518
 21
246.3283082159363
 31
0.0
  0
SPLINE
  5
1EB
330
1F
100
AcDbEntity
  8
0
  6
Continuous
 62
     7
100
AcDbSpline
210
0.0
220
0.0
230
1.0
 70
     8
 71
     3
 72
    11
 73
     7
 74
     5
 42
0.000000001
 43
0.0000000001
 44
0.00000001
 40
0.0
 40
0.0
 40
0.0
 40
0.0
 40
0.0364913913910519
 40
0.069217348525418
 40
0.0985951978665167
 40
0.1259444898791849
 40
0.1259444898791849
 40
0.1259444898791849
 40
0.1259444898791849
 10
185.1360389693211
 20
246.292952876877
 30
0.0
 10
185.1366249855494
 20
246.2807481607431
 30
0.0
 10
185.1377365629023
 20
246.2575980972331
 30
0.0
 10
185.1480201645633
 20
246.2260920466683
 30
0.0
 10
185.1642147832192
 20
246.2001367259261
 30
0.0
 10
185.180274763633
 20
246.1897741275856
 30
0.0
 10
185.1880176064585
 20
246.1847781167957
 30
0.0
 11
185.1360389693211
 21
246.292952876877
 31
0.0
 11
185.1394946460332
 21
246.2566254785274
 31
0.0
 11
185.1496927423445
 21
246.225529059557
 31
0.0
 11
185.1661349233346
 21
246.2011833629913
 31
0.0
 11
185.1880176064585
 21
246.1847781167957
 31
0.0
  0
SPLINE
  5
1EC
330
1F
100
AcDbEntity
  8
0
  6
Continuous
 62
     7
100
AcDbSpline
210
0.0
220
0.0
230
1.0
 70
     8
 71
     3
 72
    11
 73
     7
 74
     5
 42
0.000000001
 43
0.0000000001
 44
0.00000001
 40
0.0
 40
0.0
 40
0.0
 40
0.0
 40
0.0364913913910492
 40
0.0692173485254511
 40
0.0985951978665499
 40
0.1259444898792408
 40
0.1259444898792408
 40
0.1259444898792408
 40
0.1259444898792408
 10
185.3481710036771
 20
246.186886859699
 30
0.0
 10
185.3487570199055
 20
246.1746821435652
 30
0.0
 10
185.3498685972582
 20
246.1515320800552
 30
0.0
 10
185.3601521989194
 20
246.1200260294902
 30
0.0
 10
185.3763468175752
 20
246.0940707087481
 30
0.0
 10
185.392406797989
 20
246.0837081104075
 30
0.0
 10
185.4001496408145
 20
246.0787120996177
 30
0.0
 11
185.3481710036771
 21
246.186886859699
 31
0.0
 11
185.3516266803891
 21
246.1505594613494
 31
0.0
 11
185.3618247767005
 21
246.119463042379
 31
0.0
 11
185.3782669576906
 21
246.0951173458132
 31
0.0
 11
185.4001496408145
 21
246.0787120996177
 31
0.0
  0
SPLINE
  5
1ED
330
1F
100
AcDbEntity
  8
0
  6
Continuous
 62
     7
100
AcDbSpline
210
0.0
220
0.0
230
1.0
 70
     8
 71
     3
 72
     9
 73
     5
 74
     3
 42
0.000000001
 43
0.0000000001
 44
0.00000001
 40
0.0
 40
0.0
 40
0.0
 40
0.0
 40
0.0117304795540631
 40
0.0228892646942456
 40
0.0228892646942456
 40
0.0228892646942456
 40
0.0228892646942456
 10
185.7819085069382
 20
247.6044114390686
 30
0.0
 10
185.7841763886935
 20
247.601166588993
 30
0.0
 10
185.7886016394979
 20
247.5948350426852
 30
0.0
 10
185.7952051137554
 20
247.5908374686961
 30
0.0
 10
185.7984243909577
 20
247.5888886119426
 30
0.0
 11
185.7819085069382
 21
247.6044114390686
 31
0.0
 11
185.78928425789
 21
247.5952898996597
 31
0.0
 11
185.7984243909577
 21
247.5888886119426
 31
0.0
  0
SPLINE
  5
1EE
330
1F
100
AcDbEntity
  8
0
  6
Continuous
 62
     7
100
AcDbSpline
210
0.0
220
0.0
230
1.0
 70
     8
 71
     3
 72
    11
 73
     7
 74
     5
 42
0.000000001
 43
0.0000000001
 44
0.00000001
 40
0.0
 40
0.0
 40
0.0
 40
0.0
 40
0.0364913913909899
 40
0.0692173485253383
 40
0.0985951978665077
 40
0.1259444898791134
 40
0.1259444898791134
 40
0.1259444898791134
 40
0.1259444898791134
 10
184.4996428662532
 20
247.4803067489129
 30
0.0
 10
184.4990568500248
 20
247.4925114650467
 30
0.0
 10
184.4979452726722
 20
247.5156615285568
 30
0.0
 10
184.487661671011
 20
247.5471675791215
 30
0.0
 10
184.4714670523552
 20
247.5731228998637
 30
0.0
 10
184.4554070719415
 20
247.5834854982043
 30
0.0
 10
184.447664229116
 20
247.5884815089942
 30
0.0
 11
184.4996428662532
 21
247.4803067489129
 31
0.0
 11
184.4961871895412
 21
247.5166341472625
 31
0.0
 11
184.4859890932299
 21
247.5477305662328
 31
0.0
 11
184.4695469122398
 21
247.5720762627987
 31
0.0
 11
184.447664229116
 21
247.5884815089942
 31
0.0
  0
SPLINE
  5
1EF
330
1F
100
AcDbEntity
  8
0
  6
Continuous
 62
     7
100
AcDbSpline
210
0.0
220
0.0
230
1.0
 70
     8
 71
     3
 72
    11
 73
     7
 74
     5
 42
0.000000001
 43
0.0000000001
 44
0.00000001
 40
0.0
 40
0.0
 40
0.0
 40
0.0
 40
0.036491391390967
 40
0.0692173485253601
 40
0.0985951978664983
 40
0.1259444898791154
 40
0.1259444898791154
 40
0.1259444898791154
 40
0.1259444898791154
 10
184.0046681194227
 20
245.7268234596329
 30
0.0
 10
184.0052541356511
 20
245.7146187434991
 30
0.0
 10
184.0063657130038
 20
245.6914686799891
 30
0.0
 10
184.016649314665
 20
245.6599626294243
 30
0.0
 10
184.0328439333209
 20
245.634007308682
 30
0.0
 10
184.0489039137345
 20
245.6236447103415
 30
0.0
 10
184.05664675656
 20
245.6186486995516
 30
0.0
 11
184.0046681194227
 21
245.7268234596329
 31
0.0
 11
184.0081237961348
 21
245.6904960612833
 31
0.0
 11
184.0183218924461
 21
245.659399642313
 31
0.0
 11
184.0347640734362
 21
245.6350539457472
 31
0.0
 11
184.05664675656
 21
245.6186486995516
 31
0.0
  0
SPLINE
  5
1F0
330
1F
100
AcDbEntity
  8
0
  6
Continuous
 62
     7
100
AcDbSpline
210
0.0
220
0.0
230
1.0
 70
     8
 71
     3
 72
    13
 73
     9
 74
     7
 42
0.000000001
 43
0.0000000001
 44
0.00000001
 40
0.0
 40
0.0
 40
0.0
 40
0.0
 40
0.0470828003594017
 40
0.1026905262459056
 40
0.1688054830952901
 40
0.2420451263128407
 40
0.3164467628747391
 40
0.3856808178847402
 40
0.3856808178847402
 40
0.3856808178847402
 40
0.3856808178847402
 10
184.2687787909159
 20
245.5125826823736
 30
0.0
 10
184.2843095888256
 20
245.5083921018604
 30
0.0
 10
184.3181832295903
 20
245.4992521993027
 30
0.0
 10
184.3728511775684
 20
245.5229764178371
 30
0.0
 10
184.4226216882388
 20
245.5649262243592
 30
0.0
 10
184.4638601009863
 20
245.6239032495929
 30
0.0
 10
184.4930727698732
 20
245.6911361750661
 30
0.0
 10
184.4975060030501
 20
245.7390727954229
 30
0.0
 10
184.4996428662532
 20
245.7621787986923
 30
0.0
 11
184.2687787909159
 21
245.5125826823736
 31
0.0
 11
184.3152414588488
 21
245.504966178907
 31
0.0
 11
184.367706488047
 21
245.5233955269499
 31
0.0
 11
184.4188468140097
 21
245.5652984463467
 31
0.0
 11
184.461520538223
 21
245.6248215394025
 31
0.0
 11
184.4897671803218
 21
245.69365271324
 31
0.0
 11
184.4996428662532
 21
245.7621787986923
 31
0.0
  0
SPLINE
  5
1F1
330
1F
100
AcDbEntity
  8
0
  6
Continuous
 62
     7
100
AcDbSpline
210
0.0
220
0.0
230
1.0
 70
     8
 71
     3
 72
    11
 73
     7
 74
     5
 42
0.000000001
 43
0.0000000001
 44
0.00000001
 40
0.0
 40
0.0
 40
0.0
 40
0.0
 40
0.0364913913910155
 40
0.0692173485253909
 40
0.0985951978665291
 40
0.1259444898791802
 40
0.1259444898791802
 40
0.1259444898791802
 40
0.1259444898791802
 10
184.2168001537787
 20
245.620757442455
 30
0.0
 10
184.217386170007
 20
245.6085527263212
 30
0.0
 10
184.2184977473598
 20
245.5854026628111
 30
0.0
 10
184.2287813490208
 20
245.5538966122462
 30
0.0
 10
184.2449759676768
 20
245.5279412915041
 30
0.0
 10
184.2610359480904
 20
245.5175786931635
 30
0.0
 10
184.2687787909159
 20
245.5125826823736
 30
0.0
 11
184.2168001537787
 21
245.620757442455
 31
0.0
 11
184.2202558304907
 21
245.5844300441054
 31
0.0
 11
184.2304539268019
 21
245.553333625135
 31
0.0
 11
184.2468961077921
 21
245.5289879285692
 31
0.0
 11
184.2687787909159
 21
245.5125826823736
 31
0.0
  0
SPLINE
  5
1F2
330
1F
100
AcDbEntity
  8
0
  6
Continuous
 62
     7
100
AcDbSpline
210
0.0
220
0.0
230
1.0
 70
     8
 71
     3
 72
    13
 73
     9
 74
     7
 42
0.000000001
 43
0.0000000001
 44
0.00000001
 40
0.0
 40
0.0
 40
0.0
 40
0.0
 40
0.0316824590789397
 40
0.0636242999322128
 40
0.093814074315647
 40
0.1206633931324141
 40
0.1435786990418016
 40
0.1636451356207869
 40
0.1636451356207869
 40
0.1636451356207869
 40
0.1636451356207869
 10
182.4844867109815
 20
245.6886785683577
 30
0.0
 10
182.478247535055
 20
245.6801134942861
 30
0.0
 10
182.4657181131371
 20
245.6629132184228
 30
0.0
 10
182.4540116905851
 20
245.6336100929643
 30
0.0
 10
182.4482350748866
 20
245.604240999261
 30
0.0
 10
182.4496686296568
 20
245.577535527104
 30
0.0
 10
182.4577917732129
 20
245.5545315740602
 30
0.0
 10
182.4695920079824
 20
245.5459133357923
 30
0.0
 10
182.475101064989
 20
245.5418898338455
 30
0.0
 11
182.4844867109815
 21
245.6886785683577
 31
0.0
 11
182.4669073971295
 21
245.6623205429038
 31
0.0
 11
182.4547760980788
 21
245.6327720621818
 31
0.0
 11
182.449342054716
 21
245.6030753676875
 31
0.0
 11
182.4511645151632
 21
245.5762879708174
 31
0.0
 11
182.4600560846457
 21
245.5551680368283
 31
0.0
 11
182.475101064989
 21
245.5418898338455
 31
0.0
  0
SPLINE
  5
1F3
330
1F
100
AcDbEntity
  8
0
  6
Continuous
 62
     7
100
AcDbSpline
210
0.0
220
0.0
230
1.0
 70
     8
 71
     3
 72
     9
 73
     5
 74
     3
 42
0.000000001
 43
0.0000000001
 44
0.00000001
 40
0.0
 40
0.0
 40
0.0
 40
0.0
 40
0.0049484547556013
 40
0.009949928123984
 40
0.009949928123984
 40
0.009949928123984
 40
0.009949928123984
 10
182.475101064989
 20
245.5418898338455
 30
0.0
 10
182.4766043117536
 20
245.5412003621647
 30
0.0
 10
182.4796269184567
 20
245.5398140502923
 30
0.0
 10
182.4828610337906
 20
245.5390399346721
 30
0.0
 10
182.4844867109815
 20
245.5386508239758
 30
0.0
 11
182.475101064989
 21
245.5418898338455
 31
0.0
 11
182.4796631242463
 21
245.5399728502138
 31
0.0
 11
182.4844867109815
 21
245.5386508239758
 31
0.0
  0
SPLINE
  5
1F4
330
1F
100
AcDbEntity
  8
0
  6
Continuous
 62
     7
100
AcDbSpline
210
0.0
220
0.0
230
1.0
 70
     8
 71
     3
 72
    11
 73
     7
 74
     5
 42
0.000000001
 43
0.0000000001
 44
0.00000001
 40
0.0
 40
0.0
 40
0.0
 40
0.0
 40
0.0729827817782338
 40
0.1384346986564145
 40
0.197190401169321
 40
0.251888987934092
 40
0.251888987934092
 40
0.251888987934092
 40
0.251888987934092
 10
184.5703535443719
 20
245.7099991457944
 30
0.0
 10
184.5715255768125
 20
245.6855897138626
 30
0.0
 10
184.5737487174386
 20
245.6392895846059
 30
0.0
 10
184.5943159271369
 20
245.5762774837477
 30
0.0
 10
184.6267051605601
 20
245.5243668339754
 30
0.0
 10
184.65882513222
 20
245.503641647712
 30
0.0
 10
184.6743108186465
 20
245.4936496256317
 30
0.0
 11
184.5703535443719
 21
245.7099991457944
 31
0.0
 11
184.577264897796
 21
245.6373443490951
 31
0.0
 11
184.5976610904186
 21
245.5751515111544
 31
0.0
 11
184.6305454523987
 21
245.5264601180229
 31
0.0
 11
184.6743108186465
 21
245.4936496256317
 31
0.0
  0
SPLINE
  5
1F5
330
1F
100
AcDbEntity
  8
0
  6
Continuous
 62
     7
100
AcDbSpline
210
0.0
220
0.0
230
1.0
 70
     8
 71
     3
 72
     9
 73
     5
 74
     3
 42
0.000000001
 43
0.0000000001
 44
0.00000001
 40
0.0
 40
0.0
 40
0.0
 40
0.0
 40
0.0197938209757707
 40
0.0397997164022529
 40
0.0397997164022529
 40
0.0397997164022529
 40
0.0397997164022529
 10
184.8864428530025
 20
245.3875836084538
 30
0.0
 10
184.8924558406544
 20
245.3848257214586
 30
0.0
 10
184.9045462472809
 20
245.3792804175955
 30
0.0
 10
184.9174827275747
 20
245.3761840119124
 30
0.0
 10
184.923985436973
 20
245.374627568975
 30
0.0
 11
184.8864428530025
 21
245.3875836084538
 31
0.0
 11
184.904691090032
 21
245.3799156739269
 31
0.0
 11
184.923985436973
 21
245.374627568975
 31
0.0
  0
SPLINE
  5
1F6
330
1F
100
AcDbEntity
  8
0
  6
Continuous
 62
     7
100
AcDbSpline
210
0.0
220
0.0
230
1.0
 70
     8
 71
     3
 72
    11
 73
     7
 74
     5
 42
0.000000001
 43
0.0000000001
 44
0.00000001
 40
0.0
 40
0.0
 40
0.0
 40
0.0
 40
0.0729827817782567
 40
0.1384346986564104
 40
0.1971904011693411
 40
0.2518889879340609
 40
0.2518889879340609
 40
0.2518889879340609
 40
0.2518889879340609
 10
184.7824855787279
 20
245.6039331286164
 30
0.0
 10
184.7836576111685
 20
245.5795236966846
 30
0.0
 10
184.7858807517945
 20
245.5332235674279
 30
0.0
 10
184.8064479614928
 20
245.4702114665696
 30
0.0
 10
184.838837194916
 20
245.4183008167974
 30
0.0
 10
184.8709571665759
 20
245.397575630534
 30
0.0
 10
184.8864428530025
 20
245.3875836084538
 30
0.0
 11
184.7824855787279
 21
245.6039331286164
 31
0.0
 11
184.789396932152
 21
245.5312783319171
 31
0.0
 11
184.8097931247746
 21
245.4690854939765
 31
0.0
 11
184.8426774867548
 21
245.4203941008449
 31
0.0
 11
184.8864428530025
 21
245.3875836084538
 31
0.0
  0
SPLINE
  5
1F7
330
1F
100
AcDbEntity
  8
0
  6
Continuous
 62
     7
100
AcDbSpline
210
0.0
220
0.0
230
1.0
 70
     8
 71
     3
 72
     9
 73
     5
 74
     3
 42
0.000000001
 43
0.0000000001
 44
0.00000001
 40
0.0
 40
0.0
 40
0.0
 40
0.0
 40
0.0098969101623982
 40
0.0198998575501799
 40
0.0198998575501799
 40
0.0198998575501799
 40
0.0198998575501799
 10
187.8417767788114
 20
249.285537783842
 30
0.0
 10
187.8387702850843
 20
249.2869167272942
 30
0.0
 10
187.8327250784067
 20
249.2896893698302
 30
0.0
 10
187.8262568414195
 20
249.2912375821379
 30
0.0
 10
187.8230054868261
 20
249.2920158035814
 30
0.0
 11
187.8417767788114
 21
249.285537783842
 31
0.0
 11
187.8326526602966
 21
249.2893717511054
 31
0.0
 11
187.8230054868261
 21
249.2920158035814
 31
0.0
  0
SPLINE
  5
1F8
330
1F
100
AcDbEntity
  8
0
  6
Continuous
 62
     7
100
AcDbSpline
210
0.0
220
0.0
230
1.0
 70
     8
 71
     3
 72
    11
 73
     7
 74
     5
 42
0.000000001
 43
0.0000000001
 44
0.00000001
 40
0.0
 40
0.0
 40
0.0
 40
0.0
 40
0.0434025188338777
 40
0.0964637051629144
 40
0.1598904416501973
 40
0.2281233160734633
 40
0.2281233160734633
 40
0.2281233160734633
 40
0.2281233160734633
 10
186.7210668182145
 20
249.5175913595156
 30
0.0
 10
186.7065410507473
 20
249.5209512434877
 30
0.0
 10
186.6742569935285
 20
249.5284186952659
 30
0.0
 10
186.6246822720605
 20
249.5003935518874
 30
0.0
 10
186.5812420694901
 20
249.456393421775
 30
0.0
 10
186.5623862059771
 20
249.4163243128156
 30
0.0
 10
186.5526141197279
 20
249.3955584083064
 30
0.0
 11
186.7210668182145
 21
249.5175913595156
 31
0.0
 11
186.677970326661
 21
249.5227364001107
 31
0.0
 11
186.6297061615429
 21
249.5006896141394
 31
0.0
 11
186.5851819015329
 21
249.4555172610992
 31
0.0
 11
186.5526141197279
 21
249.3955584083064
 31
0.0
  0
SPLINE
  5
1F9
330
1F
100
AcDbEntity
  8
0
  6
Continuous
 62
     7
100
AcDbSpline
210
0.0
220
0.0
230
1.0
 70
     8
 71
     3
 72
    11
 73
     7
 74
     5
 42
0.000000001
 43
0.0000000001
 44
0.00000001
 40
0.0
 40
0.0
 40
0.0
 40
0.0
 40
0.029006957500429
 40
0.0550207756998103
 40
0.0783731873259075
 40
0.1001131017194615
 40
0.1001131017194615
 40
0.1001131017194615
 40
0.1001131017194615
 10
186.7623845660502
 20
249.431603390123
 30
0.0
 10
186.7619187425455
 20
249.4413049024169
 30
0.0
 10
186.7610351483345
 20
249.4597068558984
 30
0.0
 10
186.7528607286942
 20
249.4847509726191
 30
0.0
 10
186.7399876475934
 20
249.505382820011
 30
0.0
 10
186.7272215932672
 20
249.5136200374488
 30
0.0
 10
186.7210668182145
 20
249.5175913595156
 30
0.0
 11
186.7623845660502
 21
249.431603390123
 31
0.0
 11
186.7596376533404
 21
249.4604799895724
 31
0.0
 11
186.7515312004782
 21
249.4851984906408
 31
0.0
 11
186.7384613332129
 21
249.5045508516681
 31
0.0
 11
186.7210668182145
 21
249.5175913595156
 31
0.0
  0
SPLINE
  5
1FA
330
1F
100
AcDbEntity
  8
0
  6
Continuous
 62
     7
100
AcDbSpline
210
0.0
220
0.0
230
1.0
 70
     8
 71
     3
 72
     9
 73
     5
 74
     3
 42
0.000000001
 43
0.0000000001
 44
0.00000001
 40
0.0
 40
0.0
 40
0.0
 40
0.0
 40
0.0098969101623196
 40
0.0198998575500663
 40
0.0198998575500663
 40
0.0198998575500663
 40
0.0198998575500663
 10
187.6296447444554
 20
249.39160380102
 30
0.0
 10
187.6266382507283
 20
249.3929827444722
 30
0.0
 10
187.6205930440508
 20
249.3957553870083
 30
0.0
 10
187.6141248070635
 20
249.397303599316
 30
0.0
 10
187.6108734524702
 20
249.3980818207594
 30
0.0
 11
187.6296447444554
 21
249.39160380102
 31
0.0
 11
187.6205206259407
 21
249.3954377682834
 31
0.0
 11
187.6108734524702
 21
249.3980818207594
 31
0.0
  0
SPLINE
  5
1FB
330
1F
100
AcDbEntity
  8
0
  6
Continuous
 62
     7
100
AcDbSpline
210
0.0
220
0.0
230
1.0
 70
     8
 71
     3
 72
    11
 73
     7
 74
     5
 42
0.000000001
 43
0.0000000001
 44
0.00000001
 40
0.0
 40
0.0
 40
0.0
 40
0.0
 40
0.0434025188339657
 40
0.0964637051629906
 40
0.1598904416502139
 40
0.2281233160734778
 40
0.2281233160734778
 40
0.2281233160734778
 40
0.2281233160734778
 10
186.5089347838585
 20
249.6236573766936
 30
0.0
 10
186.4944090163913
 20
249.6270172606656
 30
0.0
 10
186.4621249591725
 20
249.6344847124439
 30
0.0
 10
186.4125502377045
 20
249.6064595690656
 30
0.0
 10
186.3691100351341
 20
249.5624594389529
 30
0.0
 10
186.3502541716211
 20
249.5223903299936
 30
0.0
 10
186.340482085372
 20
249.5016244254844
 30
0.0
 11
186.5089347838585
 21
249.6236573766936
 31
0.0
 11
186.4658382923049
 21
249.6288024172887
 31
0.0
 11
186.4175741271868
 21
249.6067556313175
 31
0.0
 11
186.373049867177
 21
249.5615832782773
 31
0.0
 11
186.340482085372
 21
249.5016244254844
 31
0.0
  0
SPLINE
  5
1FC
330
1F
100
AcDbEntity
  8
0
  6
Continuous
 62
     7
100
AcDbSpline
210
0.0
220
0.0
230
1.0
 70
     8
 71
     3
 72
    13
 73
     9
 74
     7
 42
0.000000001
 43
0.0000000001
 44
0.00000001
 40
0.0
 40
0.0
 40
0.0
 40
0.0
 40
0.0462199394388055
 40
0.101130298083773
 40
0.1646498545382426
 40
0.2333377853616034
 40
0.3022250985744346
 40
0.366289060593559
 40
0.366289060593559
 40
0.366289060593559
 40
0.366289060593559
 10
187.0451880275209
 20
249.5149431408005
 30
0.0
 10
187.0295340494735
 20
249.5153913521681
 30
0.0
 10
186.99528278459
 20
249.5163720332149
 30
0.0
 10
186.9458384713395
 20
249.4878319811241
 30
0.0
 10
186.9007118465804
 20
249.444586188355
 30
0.0
 10
186.864260583589
 20
249.387697705827
 30
0.0
 10
186.8387358188693
 20
249.3246174167406
 30
0.0
 10
186.8349294001344
 20
249.2802485892093
 30
0.0
 10
186.8330952441688
 20
249.2588690047424
 30
0.0
 11
187.0451880275209
 21
249.5149431408005
 31
0.0
 11
186.9990369315446
 21
249.5124213250881
 31
0.0
 11
186.9499292865283
 21
249.4878533029552
 31
0.0
 11
186.9037864054418
 21
249.4442004827757
 31
0.0
 11
186.8661718467841
 21
249.3867272123737
 31
0.0
 11
186.8416216114233
 21
249.3223630333101
 31
0.0
 11
186.8330952441688
 21
249.2588690047424
 31
0.0
  0
SPLINE
  5
1FD
330
1F
100
AcDbEntity
  8
0
  6
Continuous
 62
     7
100
AcDbSpline
210
0.0
220
0.0
230
1.0
 70
     8
 71
     3
 72
    15
 73
    11
 74
     9
 42
0.000000001
 43
0.0000000001
 44
0.00000001
 40
0.0
 40
0.0
 40
0.0
 40
0.0
 40
0.0495555499208653
 40
0.10913192112708
 40
0.1781326830686477
 40
0.2519490022388431
 40
0.3243935714894164
 40
0.3897046288328173
 40
0.4446720315075535
 40
0.4913110728382633
 40
0.4913110728382633
 40
0.4913110728382633
 40
0.4913110728382633
 10
187.6816626325966
 20
248.9212888877025
 30
0.0
 10
187.6984749944089
 20
248.9210276333693
 30
0.0
 10
187.7354994097169
 20
248.9204523124667
 30
0.0
 10
187.7879733508799
 20
248.9534510058238
 30
0.0
 10
187.8347050925111
 20
249.0022066449455
 30
0.0
 10
187.8710036395194
 20
249.0649627603615
 30
0.0
 10
187.8924762659365
 20
249.133002700079
 30
0.0
 10
187.8957616945948
 20
249.1972260103946
 30
0.0
 10
187.881724937795
 20
249.2544301543631
 30
0.0
 10
187.8543447464265
 20
249.2757511149173
 30
0.0
 10
187.8417767788114
 20
249.285537783842
 30
0.0
 11
187.6816626325966
 21
248.9212888877025
 31
0.0
 11
187.7310941869658
 21
248.9247923181473
 31
0.0
 11
187.7834391911981
 21
248.9532412875107
 31
0.0
 11
187.8315172822395
 21
249.0027347481287
 31
0.0
 11
187.8687338981867
 21
249.0664824707129
 31
0.0
 11
187.8899831163944
 21
249.1357405821305
 31
0.0
 11
187.8923511656728
 21
249.2010086923071
 31
0.0
 11
187.8755120678408
 21
249.2533332680578
 31
0.0
 11
187.8417767788114
 21
249.285537783842
 31
0.0
  0
SPLINE
  5
1FE
330
1F
100
AcDbEntity
  8
0
  6
Continuous
 62
     7
100
AcDbSpline
210
0.0
220
0.0
230
1.0
 70
     8
 71
     3
 72
    13
 73
     9
 74
     7
 42
0.000000001
 43
0.0000000001
 44
0.00000001
 40
0.0
 40
0.0
 40
0.0
 40
0.0
 40
0.0462199394387503
 40
0.1011302980837305
 40
0.1646498545381794
 40
0.2333377853615722
 40
0.3022250985744136
 40
0.3662890605933821
 40
0.3662890605933821
 40
0.3662890605933821
 40
0.3662890605933821
 10
187.2573200618768
 20
249.4088771236226
 30
0.0
 10
187.2416660838295
 20
249.4093253349903
 30
0.0
 10
187.2074148189459
 20
249.4103060160369
 30
0.0
 10
187.1579705056955
 20
249.3817659639462
 30
0.0
 10
187.1128438809364
 20
249.3385201711771
 30
0.0
 10
187.0763926179451
 20
249.281631688649
 30
0.0
 10
187.0508678532252
 20
249.2185513995626
 30
0.0
 10
187.0470614344904
 20
249.1741825720314
 30
0.0
 10
187.0452272785249
 20
249.1528029875645
 30
0.0
 11
187.2573200618768
 21
249.4088771236226
 31
0.0
 11
187.2111689659005
 21
249.4063553079102
 31
0.0
 11
187.1620613208843
 21
249.3817872857772
 31
0.0
 11
187.1159184397978
 21
249.3381344655977
 31
0.0
 11
187.0783038811401
 21
249.2806611951956
 31
0.0
 11
187.0537536457793
 21
249.216297016132
 31
0.0
 11
187.0452272785249
 21
249.1528029875645
 31
0.0
  0
SPLINE
  5
1FF
330
1F
100
AcDbEntity
  8
0
  6
Continuous
 62
     7
100
AcDbSpline
210
0.0
220
0.0
230
1.0
 70
     8
 71
     3
 72
     9
 73
     5
 74
     3
 42
0.000000001
 43
0.0000000001
 44
0.00000001
 40
0.0
 40
0.0
 40
0.0
 40
0.0
 40
0.04272291986026
 40
0.0921328150615501
 40
0.0921328150615501
 40
0.0921328150615501
 40
0.0921328150615501
 10
187.8417767788113
 20
248.4264738087316
 30
0.0
 10
187.827717367862
 20
248.4306757175779
 30
0.0
 10
187.7973979705409
 20
248.4397371973236
 30
0.0
 10
187.7680650215445
 20
248.427406362953
 30
0.0
 10
187.7523340597114
 20
248.4207934512886
 30
0.0
 11
187.8417767788113
 21
248.4264738087316
 31
0.0
 11
187.7998106570256
 21
248.4344796005264
 31
0.0
 11
187.7523340597114
 21
248.4207934512886
 31
0.0
  0
SPLINE
  5
200
330
1F
100
AcDbEntity
  8
0
  6
Continuous
 62
     7
100
AcDbSpline
210
0.0
220
0.0
230
1.0
 70
     8
 71
     3
 72
     9
 73
     5
 74
     3
 42
0.000000001
 43
0.0000000001
 44
0.00000001
 40
0.0
 40
0.0
 40
0.0
 40
0.0
 40
0.0049484547557061
 40
0.0099499281241436
 40
0.0099499281241436
 40
0.0099499281241436
 40
0.0099499281241436
 10
189.4233224703826
 20
249.3622966495482
 30
0.0
 10
189.4218192236179
 20
249.362986121229
 30
0.0
 10
189.4187966169149
 20
249.3643724331014
 30
0.0
 10
189.4155625015808
 20
249.3651465487216
 30
0.0
 10
189.4139368243899
 20
249.3655356594179
 30
0.0
 11
189.4233224703826
 21
249.3622966495482
 31
0.0
 11
189.4187604111252
 21
249.3642136331799
 31
0.0
 11
189.4139368243899
 21
249.3655356594179
 31
0.0
  0
SPLINE
  5
201
330
1F
100
AcDbEntity
  8
0
  6
Continuous
 62
     7
100
AcDbSpline
210
0.0
220
0.0
230
1.0
 70
     8
 71
     3
 72
    11
 73
     7
 74
     5
 42
0.000000001
 43
0.0000000001
 44
0.00000001
 40
0.0
 40
0.0
 40
0.0
 40
0.0
 40
0.0375352078072665
 40
0.0798568889415414
 40
0.1290539578438601
 40
0.1844966165988068
 40
0.1844966165988068
 40
0.1844966165988068
 40
0.1844966165988068
 10
187.0972059156621
 20
246.5270922122309
 30
0.0
 10
187.1093447855664
 20
246.523221079304
 30
0.0
 10
187.1351704716788
 20
246.5149851825564
 30
0.0
 10
187.1784649349002
 20
246.5266798701638
 30
0.0
 10
187.2209112379352
 20
246.5518475711323
 30
0.0
 10
187.244710295435
 20
246.5776267102395
 30
0.0
 10
187.2573200618768
 20
246.5912856196062
 30
0.0
 11
187.0972059156621
 21
246.5270922122309
 31
0.0
 11
187.1338355841902
 21
246.5188971234197
 31
0.0
 11
187.1752454334963
 21
246.5276349466349
 31
0.0
 11
187.2176874293679
 21
246.5525152376458
 31
0.0
 11
187.2573200618768
 21
246.5912856196062
 31
0.0
  0
SPLINE
  5
202
330
1F
100
AcDbEntity
  8
0
  6
Continuous
 62
     7
100
AcDbSpline
210
0.0
220
0.0
230
1.0
 70
     8
 71
     3
 72
    11
 73
     7
 74
     5
 42
0.000000001
 43
0.0000000001
 44
0.00000001
 40
0.0
 40
0.0
 40
0.0
 40
0.0
 40
0.0364913913909872
 40
0.0692173485253444
 40
0.0985951978664668
 40
0.1259444898791065
 40
0.1259444898791065
 40
0.1259444898791065
 40
0.1259444898791065
 10
187.0452272785249
 20
246.6352669723122
 30
0.0
 10
187.0458132947532
 20
246.6230622561784
 30
0.0
 10
187.046924872106
 20
246.5999121926684
 30
0.0
 10
187.057208473767
 20
246.5684061421034
 30
0.0
 10
187.0734030924229
 20
246.5424508213614
 30
0.0
 10
187.0894630728366
 20
246.5320882230208
 30
0.0
 10
187.0972059156621
 20
246.5270922122309
 30
0.0
 11
187.0452272785249
 21
246.6352669723122
 31
0.0
 11
187.0486829552369
 21
246.5989395739626
 31
0.0
 11
187.0588810515482
 21
246.5678431549923
 31
0.0
 11
187.0753232325382
 21
246.5434974584265
 31
0.0
 11
187.0972059156621
 21
246.5270922122309
 31
0.0
  0
SPLINE
  5
203
330
1F
100
AcDbEntity
  8
0
  6
Continuous
 62
     7
100
AcDbSpline
210
0.0
220
0.0
230
1.0
 70
     8
 71
     3
 72
    11
 73
     7
 74
     5
 42
0.000000001
 43
0.0000000001
 44
0.00000001
 40
0.0
 40
0.0
 40
0.0
 40
0.0
 40
0.0375352078071986
 40
0.079856888941513
 40
0.1290539578438419
 40
0.1844966165987086
 40
0.1844966165987086
 40
0.1844966165987086
 40
0.1844966165987086
 10
187.6296447444554
 20
247.6734758507993
 30
0.0
 10
187.6175058745512
 20
247.6773469837263
 30
0.0
 10
187.5916801884387
 20
247.6855828804737
 30
0.0
 10
187.5483857252174
 20
247.6738881928663
 30
0.0
 10
187.5059394221823
 20
247.6487204918979
 30
0.0
 10
187.4821403646824
 20
247.6229413527905
 30
0.0
 10
187.4695305982407
 20
247.609282443424
 30
0.0
 11
187.6296447444554
 21
247.6734758507993
 31
0.0
 11
187.5930150759274
 21
247.6816709396105
 31
0.0
 11
187.5516052266212
 21
247.6729331163951
 31
0.0
 11
187.5091632307496
 21
247.6480528253843
 31
0.0
 11
187.4695305982407
 21
247.609282443424
 31
0.0
  0
SPLINE
  5
204
330
1F
100
AcDbEntity
  8
0
  6
Continuous
 62
     7
100
AcDbSpline
210
0.0
220
0.0
230
1.0
 70
     8
 71
     3
 72
    11
 73
     7
 74
     5
 42
0.000000001
 43
0.0000000001
 44
0.00000001
 40
0.0
 40
0.0
 40
0.0
 40
0.0
 40
0.0273006608446566
 40
0.0606767284113598
 40
0.1005728435086948
 40
0.1434920751493485
 40
0.1434920751493485
 40
0.1434920751493485
 40
0.1434920751493485
 10
186.0105564253137
 20
247.4828225947646
 30
0.0
 10
186.0196932925229
 20
247.4807091908593
 30
0.0
 10
186.0400003189928
 20
247.4760120872737
 30
0.0
 10
186.0711833639338
 20
247.4936402054634
 30
0.0
 10
186.0985077284523
 20
247.5213167732169
 30
0.0
 10
186.1103682782503
 20
247.5465206821656
 30
0.0
 10
186.1165150284332
 20
247.5595826654601
 30
0.0
 11
186.0105564253137
 21
247.4828225947646
 31
0.0
 11
186.0376645932766
 21
247.4795863075496
 31
0.0
 11
186.0680232848415
 21
247.4934539788055
 31
0.0
 11
186.0960295348925
 21
247.5218678865123
 31
0.0
 11
186.1165150284332
 21
247.5595826654601
 31
0.0
  0
SPLINE
  5
205
330
1F
100
AcDbEntity
  8
0
  6
Continuous
 62
     7
100
AcDbSpline
210
0.0
220
0.0
230
1.0
 70
     8
 71
     3
 72
     9
 73
     5
 74
     3
 42
0.000000001
 43
0.0000000001
 44
0.00000001
 40
0.0
 40
0.0
 40
0.0
 40
0.0
 40
0.0117304795540767
 40
0.0228892646942988
 40
0.0228892646942988
 40
0.0228892646942988
 40
0.0228892646942988
 10
185.9940405412941
 20
247.4983454218906
 30
0.0
 10
185.9963084230495
 20
247.4951005718151
 30
0.0
 10
186.0007336738539
 20
247.4887690255072
 30
0.0
 10
186.0073371481114
 20
247.4847714515181
 30
0.0
 10
186.0105564253137
 20
247.4828225947646
 30
0.0
 11
185.9940405412941
 21
247.4983454218906
 31
0.0
 11
186.0014162922459
 21
247.4892238824817
 31
0.0
 11
186.0105564253137
 21
247.4828225947646
 31
0.0
  0
SPLINE
  5
206
330
1F
100
AcDbEntity
  8
0
  6
Continuous
 62
     7
100
AcDbSpline
210
0.0
220
0.0
230
1.0
 70
     8
 71
     3
 72
    11
 73
     7
 74
     5
 42
0.000000001
 43
0.0000000001
 44
0.00000001
 40
0.0
 40
0.0
 40
0.0
 40
0.0
 40
0.0364913913911004
 40
0.0692173485254576
 40
0.0985951978666035
 40
0.1259444898792262
 40
0.1259444898792262
 40
0.1259444898792262
 40
0.1259444898792262
 10
186.2674098192197
 20
246.0587862444997
 30
0.0
 10
186.2679958354481
 20
246.0465815283659
 30
0.0
 10
186.2691074128008
 20
246.0234314648557
 30
0.0
 10
186.2793910144618
 20
245.9919254142909
 30
0.0
 10
186.2955856331177
 20
245.9659700935487
 30
0.0
 10
186.3116456135314
 20
245.9556074952082
 30
0.0
 10
186.3193884563569
 20
245.9506114844183
 30
0.0
 11
186.2674098192197
 21
246.0587862444997
 31
0.0
 11
186.2708654959317
 21
246.02245884615
 31
0.0
 11
186.281063592243
 21
245.9913624271796
 31
0.0
 11
186.297505773233
 21
245.9670167306138
 31
0.0
 11
186.3193884563569
 21
245.9506114844183
 31
0.0
  0
SPLINE
  5
207
330
1F
100
AcDbEntity
  8
0
  6
Continuous
 62
     7
100
AcDbSpline
210
0.0
220
0.0
230
1.0
 70
     8
 71
     3
 72
    11
 73
     7
 74
     5
 42
0.000000001
 43
0.0000000001
 44
0.00000001
 40
0.0
 40
0.0
 40
0.0
 40
0.0
 40
0.0364913913910775
 40
0.0692173485253988
 40
0.0985951978665447
 40
0.125944489879247
 40
0.125944489879247
 40
0.125944489879247
 40
0.125944489879247
 10
186.4795418535756
 20
245.9527202273217
 30
0.0
 10
186.480127869804
 20
245.9405155111879
 30
0.0
 10
186.4812394471567
 20
245.9173654476778
 30
0.0
 10
186.4915230488178
 20
245.885859397113
 30
0.0
 10
186.5077176674737
 20
245.8599040763708
 30
0.0
 10
186.5237776478874
 20
245.8495414780301
 30
0.0
 10
186.5315204907129
 20
245.8445454672403
 30
0.0
 11
186.4795418535756
 21
245.9527202273217
 31
0.0
 11
186.4829975302876
 21
245.916392828972
 31
0.0
 11
186.4931956265989
 21
245.8852964100017
 31
0.0
 11
186.509637807589
 21
245.8609507134359
 31
0.0
 11
186.5315204907129
 21
245.8445454672403
 31
0.0
  0
SPLINE
  5
208
330
1F
100
AcDbEntity
  8
0
  6
Continuous
 62
     7
100
AcDbSpline
210
0.0
220
0.0
230
1.0
 70
     8
 71
     3
 72
    15
 73
    11
 74
     9
 42
0.000000001
 43
0.0000000001
 44
0.00000001
 40
0.0
 40
0.0
 40
0.0
 40
0.0
 40
0.049555549920841
 40
0.1091319211270057
 40
0.1781326830685332
 40
0.2519490022387184
 40
0.3243935714892646
 40
0.3897046288326959
 40
0.4446720315074321
 40
0.491311072838141
 40
0.491311072838141
 40
0.491311072838141
 40
0.491311072838141
 10
185.8431850015116
 20
245.1847360325208
 30
0.0
 10
185.859997363324
 20
245.1844747781876
 30
0.0
 10
185.8970217786319
 20
245.1838994572852
 30
0.0
 10
185.9494957197948
 20
245.2168981506421
 30
0.0
 10
185.996227461426
 20
245.2656537897639
 30
0.0
 10
186.0325260084342
 20
245.3284099051797
 30
0.0
 10
186.0539986348515
 20
245.3964498448972
 30
0.0
 10
186.0572840635097
 20
245.4606731552129
 30
0.0
 10
186.0432473067099
 20
245.5178772991812
 30
0.0
 10
186.0158671153416
 20
245.5391982597356
 30
0.0
 10
186.0032991477264
 20
245.5489849286603
 30
0.0
 11
185.8431850015116
 21
245.1847360325208
 31
0.0
 11
185.8926165558808
 21
245.1882394629656
 31
0.0
 11
185.944961560113
 21
245.216688432329
 31
0.0
 11
185.9930396511544
 21
245.266181892947
 31
0.0
 11
186.0302562671017
 21
245.3299296155312
 31
0.0
 11
186.0515054853093
 21
245.3991877269488
 31
0.0
 11
186.0538735345878
 21
245.4644558371253
 31
0.0
 11
186.0370344367558
 21
245.5167804128761
 31
0.0
 11
186.0032991477264
 21
245.5489849286603
 31
0.0
  0
SPLINE
  5
209
330
1F
100
AcDbEntity
  8
0
  6
Continuous
 62
     7
100
AcDbSpline
210
0.0
220
0.0
230
1.0
 70
     8
 71
     3
 72
     9
 73
     5
 74
     3
 42
0.000000001
 43
0.0000000001
 44
0.00000001
 40
0.0
 40
0.0
 40
0.0
 40
0.0
 40
0.0098969101624244
 40
0.0198998575501787
 40
0.0198998575501787
 40
0.0198998575501787
 40
0.0198998575501787
 10
186.0032991477264
 20
245.5489849286603
 30
0.0
 10
186.0002926539993
 20
245.5503638721125
 30
0.0
 10
185.9942474473218
 20
245.5531365146485
 30
0.0
 10
185.9877792103345
 20
245.5546847269563
 30
0.0
 10
185.9845278557411
 20
245.5554629483997
 30
0.0
 11
186.0032991477264
 21
245.5489849286603
 31
0.0
 11
185.9941750292116
 21
245.5528188959237
 31
0.0
 11
185.9845278557411
 21
245.5554629483997
 31
0.0
  0
SPLINE
  5
20A
330
1F
100
AcDbEntity
  8
0
  6
Continuous
 62
     7
100
AcDbSpline
210
0.0
220
0.0
230
1.0
 70
     8
 71
     3
 72
    13
 73
     9
 74
     7
 42
0.000000001
 43
0.0000000001
 44
0.00000001
 40
0.0
 40
0.0
 40
0.0
 40
0.0
 40
0.0470828003593548
 40
0.1026905262459297
 40
0.1688054830953063
 40
0.2420451263128965
 40
0.3164467628748272
 40
0.3856808178848284
 40
0.3856808178848284
 40
0.3856808178848284
 40
0.3856808178848284
 10
186.5315204907129
 20
245.8445454672403
 30
0.0
 10
186.5470512886226
 20
245.8403548867271
 30
0.0
 10
186.5809249293874
 20
245.8312149841692
 30
0.0
 10
186.6355928773655
 20
245.8549392027037
 30
0.0
 10
186.6853633880358
 20
245.896889009226
 30
0.0
 10
186.7266018007833
 20
245.9558660344595
 30
0.0
 10
186.7558144696702
 20
246.0230989599327
 30
0.0
 10
186.7602477028472
 20
246.0710355802896
 30
0.0
 10
186.7623845660503
 20
246.094141583559
 30
0.0
 11
186.5315204907129
 21
245.8445454672403
 31
0.0
 11
186.5779831586458
 21
245.8369289637737
 31
0.0
 11
186.6304481878441
 21
245.8553583118166
 31
0.0
 11
186.6815885138066
 21
245.8972612312134
 31
0.0
 11
186.72426223802
 21
245.9567843242693
 31
0.0
 11
186.7525088801189
 21
246.0256154981067
 31
0.0
 11
186.7623845660503
 21
246.094141583559
 31
0.0
  0
SPLINE
  5
20B
330
1F
100
AcDbEntity
  8
0
  6
Continuous
 62
     7
100
AcDbSpline
210
0.0
220
0.0
230
1.0
 70
     8
 71
     3
 72
    13
 73
     9
 74
     7
 42
0.000000001
 43
0.0000000001
 44
0.00000001
 40
0.0
 40
0.0
 40
0.0
 40
0.0
 40
0.0705265946434342
 40
0.1499975576031539
 40
0.2308424518564545
 40
0.3049714555560629
 40
0.3670443253000507
 40
0.4185323534584413
 40
0.4185323534584413
 40
0.4185323534584413
 40
0.4185323534584413
 10
187.7523340597114
 20
248.0743832897748
 30
0.0
 10
187.7720693849933
 20
248.0874973513922
 30
0.0
 10
187.8140429124991
 20
248.1153886456699
 30
0.0
 10
187.8584378684489
 20
248.1800989404117
 30
0.0
 10
187.8884064724296
 20
248.2531270856163
 30
0.0
 10
187.8970196404211
 20
248.3250048007223
 30
0.0
 10
187.8855753018914
 20
248.3906924087694
 30
0.0
 10
187.8554400013957
 20
248.4153115839195
 30
0.0
 10
187.8417767788113
 20
248.4264738087316
 30
0.0
 11
187.7523340597114
 21
248.0743832897748
 31
0.0
 11
187.8086381179214
 21
248.1168550793349
 31
0.0
 11
187.8556330879184
 21
248.1809417893606
 31
0.0
 11
187.8855475273363
 21
248.2560485349806
 31
0.0
 11
187.893436983819
 21
248.3297565107844
 31
0.0
 11
187.8779950222637
 21
248.3898779557508
 31
0.0
 11
187.8417767788113
 21
248.4264738087316
 31
0.0
  0
SPLINE
  5
20C
330
1F
100
AcDbEntity
  8
0
  6
Continuous
 62
     7
100
AcDbSpline
210
0.0
220
0.0
230
1.0
 70
     8
 71
     3
 72
     9
 73
     5
 74
     3
 42
0.000000001
 43
0.0000000001
 44
0.00000001
 40
0.0
 40
0.0
 40
0.0
 40
0.0
 40
0.0427229198603438
 40
0.0921328150616574
 40
0.0921328150616574
 40
0.0921328150616574
 40
0.0921328150616574
 10
187.6296447444554
 20
248.5325398259096
 30
0.0
 10
187.6155853335061
 20
248.5367417347559
 30
0.0
 10
187.585265936185
 20
248.5458032145016
 30
0.0
 10
187.5559329871885
 20
248.5334723801309
 30
0.0
 10
187.5402020253554
 20
248.5268594684665
 30
0.0
 11
187.6296447444554
 21
248.5325398259096
 31
0.0
 11
187.5876786226696
 21
248.5405456177044
 31
0.0
 11
187.5402020253554
 21
248.5268594684665
 31
0.0
  0
SPLINE
  5
20D
330
1F
100
AcDbEntity
  8
0
  6
Continuous
 62
     7
100
AcDbSpline
210
0.0
220
0.0
230
1.0
 70
     8
 71
     3
 72
    11
 73
     7
 74
     5
 42
0.000000001
 43
0.0000000001
 44
0.00000001
 40
0.0
 40
0.0
 40
0.0
 40
0.0
 40
0.0375352078071647
 40
0.0798568889414674
 40
0.1290539578437472
 40
0.1844966165986338
 40
0.1844966165986338
 40
0.1844966165986338
 40
0.1844966165986338
 10
187.8417767788113
 20
247.5674098336213
 30
0.0
 10
187.8296379089071
 20
247.5712809665483
 30
0.0
 10
187.8038122227945
 20
247.5795168632957
 30
0.0
 10
187.7605177595734
 20
247.5678221756884
 30
0.0
 10
187.7180714565383
 20
247.5426544747199
 30
0.0
 10
187.6942723990385
 20
247.5168753356126
 30
0.0
 10
187.6816626325967
 20
247.503216426246
 30
0.0
 11
187.8417767788113
 21
247.5674098336213
 31
0.0
 11
187.8051471102833
 21
247.5756049224325
 31
0.0
 11
187.7637372609772
 21
247.5668670992172
 31
0.0
 11
187.7212952651056
 21
247.5419868082063
 31
0.0
 11
187.6816626325967
 21
247.503216426246
 31
0.0
  0
SPLINE
  5
20E
330
1F
100
AcDbEntity
  8
0
  6
Continuous
 62
     7
100
AcDbSpline
210
0.0
220
0.0
230
1.0
 70
     8
 71
     3
 72
    13
 73
     9
 74
     7
 42
0.000000001
 43
0.0000000001
 44
0.00000001
 40
0.0
 40
0.0
 40
0.0
 40
0.0
 40
0.0633649113410124
 40
0.1272485919915628
 40
0.1876281409874853
 40
0.2413267799661776
 40
0.2871573999595431
 40
0.3272902788734382
 40
0.3272902788734382
 40
0.3272902788734382
 40
0.3272902788734382
 10
187.8230054868261
 20
247.2738323645968
 30
0.0
 10
187.8354838373367
 20
247.2909625108972
 30
0.0
 10
187.8605426891946
 20
247.325363054356
 30
0.0
 10
187.8839555263452
 20
247.3839693064114
 30
0.0
 10
187.8955087602869
 20
247.4427074936739
 30
0.0
 10
187.8926416518589
 20
247.496118438758
 30
0.0
 10
187.8763953780836
 20
247.5421263595627
 30
0.0
 10
187.8527948944048
 20
247.5593628285736
 30
0.0
 10
187.8417767788113
 20
247.5674098336213
 30
0.0
 11
187.8230054868261
 21
247.2738323645968
 31
0.0
 11
187.8581641145301
 21
247.3265484155047
 31
0.0
 11
187.8824267126316
 21
247.3856453769486
 31
0.0
 11
187.8932947993569
 21
247.4450387659372
 31
0.0
 11
187.8896498784628
 21
247.4986135596774
 31
0.0
 11
187.8718667394977
 21
247.5408534276556
 31
0.0
 11
187.8417767788113
 21
247.5674098336213
 31
0.0
  0
SPLINE
  5
20F
330
1F
100
AcDbEntity
  8
0
  6
Continuous
 62
     7
100
AcDbSpline
210
0.0
220
0.0
230
1.0
 70
     8
 71
     3
 72
    11
 73
     7
 74
     5
 42
0.000000001
 43
0.0000000001
 44
0.00000001
 40
0.0
 40
0.0
 40
0.0
 40
0.0
 40
0.0364913913910263
 40
0.0692173485253742
 40
0.098595197866536
 40
0.1259444898791587
 40
0.1259444898791587
 40
0.1259444898791587
 40
0.1259444898791587
 10
186.8330952441688
 20
246.7413329894902
 30
0.0
 10
186.8336812603972
 20
246.7291282733565
 30
0.0
 10
186.8347928377499
 20
246.7059782098464
 30
0.0
 10
186.8450764394111
 20
246.6744721592815
 30
0.0
 10
186.861271058067
 20
246.6485168385393
 30
0.0
 10
186.8773310384807
 20
246.6381542401988
 30
0.0
 10
186.8850738813062
 20
246.6331582294089
 30
0.0
 11
186.8330952441688
 21
246.7413329894902
 31
0.0
 11
186.8365509208809
 21
246.7050055911406
 31
0.0
 11
186.8467490171922
 21
246.6739091721703
 31
0.0
 11
186.8631911981823
 21
246.6495634756045
 31
0.0
 11
186.8850738813062
 21
246.6331582294089
 31
0.0
  0
SPLINE
  5
210
330
1F
100
AcDbEntity
  8
0
  6
Continuous
 62
     7
100
AcDbSpline
210
0.0
220
0.0
230
1.0
 70
     8
 71
     3
 72
    15
 73
    11
 74
     9
 42
0.000000001
 43
0.0000000001
 44
0.00000001
 40
0.0
 40
0.0
 40
0.0
 40
0.0
 40
1.951367739586893
 40
3.858708012521888
 40
5.680403490190955
 40
7.379839442017341
 40
8.928444790591264
 40
10.30964396602029
 40
11.52438319772286
 40
12.59849999358478
 40
12.59849999358478
 40
12.59849999358478
 40
12.59849999358478
 10
177.3578643762691
 20
282.0000000000001
 30
0.0
 10
178.0085365466227
 20
281.9838191023385
 30
0.0
 10
179.2952001855118
 20
281.951822381226
 30
0.0
 10
181.1748760370127
 20
281.6942766841731
 30
0.0
 10
182.9415925685014
 20
281.2911030009809
 30
0.0
 10
184.5423110028101
 20
280.7394090814782
 30
0.0
 10
185.9349225952871
 20
280.0600009650097
 30
0.0
 10
187.0673556711646
 20
279.2647960835287
 30
0.0
 10
187.9478379763112
 20
278.3871816389777
 30
0.0
 10
188.2768294797179
 20
277.6934463520285
 30
0.0
 10
188.4312189564371
 20
277.3678895132234
 30
0.0
 11
177.3578643762691
 21
282.0000000000001
 31
0.0
 11
179.3073755323807
 21
281.9148984738981
 31
0.0
 11
181.1978979327516
 21
281.6621694290304
 31
0.0
 11
182.972227367455
 21
281.249459517613
 31
0.0
 11
184.576676118948
 21
280.689257092008
 31
0.0
 11
185.9626957518826
 21
279.9985124930601
 31
0.0
 11
187.088348423277
 21
279.1981268219356
 31
0.0
 11
187.9195729908092
 21
278.3123180749261
 31
0.0
 11
188.4312189564371
 21
277.3678895132234
 31
0.0
  0
SPLINE
  5
211
330
1F
100
AcDbEntity
  8
0
  6
Continuous
 62
     7
100
AcDbSpline
210
0.0
220
0.0
230
1.0
 70
     8
 71
     3
 72
    21
 73
    17
 74
    15
 42
0.000000001
 43
0.0000000001
 44
0.00000001
 40
0.0
 40
0.0
 40
0.0
 40
0.0
 40
1.386571866560888
 40
2.574279022732693
 40
3.644944463909176
 40
4.729628282086965
 40
5.952709694172313
 40
7.383718658761166
 40
9.037244952971783
 40
10.89012297056767
 40
12.89529697400432
 40
14.99113297322003
 40
17.10834142949238
 40
19.17591624050573
 40
21.12688578062829
 40
22.90452888028505
 40
22.90452888028505
 40
22.90452888028505
 40
22.90452888028505
 10
169.1928985669919
 20
273.488248654052
 30
0.0
 10
168.8287147864558
 20
273.7766536047454
 30
0.0
 10
168.152579143541
 20
274.3120999374134
 30
0.0
 10
167.4855435445855
 20
275.3613072971235
 30
0.0
 10
167.2778623830547
 20
276.4896343134188
 30
0.0
 10
167.5850657723841
 20
277.6084752370153
 30
0.0
 10
168.3424631086078
 20
278.6238488223899
 30
0.0
 10
169.4826164075424
 20
279.5160184853029
 30
0.0
 10
170.9572205576768
 20
280.2643613000737
 30
0.0
 10
172.7068489548693
 20
280.8427948096993
 30
0.0
 10
174.6584383633246
 20
281.2276934304126
 30
0.0
 10
176.7276122706376
 20
281.4016721530371
 30
0.0
 10
178.8252471570053
 20
281.3593310325741
 30
0.0
 10
180.8555066287783
 20
281.0939492282989
 30
0.0
 10
182.7444650987281
 20
280.6473116365875
 30
0.0
 10
183.885117764919
 20
280.1483957004907
 30
0.0
 10
184.4289321881346
 20
279.9105339059329
 30
0.0
 11
169.1928985669919
 21
273.488248654052
 31
0.0
 11
168.1598314030786
 21
274.4131020489097
 31
0.0
 11
167.5396297696163
 21
275.4260177545494
 31
0.0
 11
167.3601351205951
 21
276.4815300287613
 31
0.0
 11
167.6294013973589
 21
277.5322605657299
 31
0.0
 11
168.3353451171102
 21
278.5310456324009
 31
0.0
 11
169.4462762087043
 21
279.4330538201139
 31
0.0
 11
170.9123314446234
 21
280.197796426863
 31
0.0
 11
172.6677027093738
 21
280.7909479032929
 31
0.0
 11
174.6335992964014
 21
281.1858825757986
 31
0.0
 11
176.7217780225089
 21
281.3648746013945
 31
0.0
 11
178.8385084903542
 21
281.3198882157563
 31
0.0
 11
180.8887783443538
 21
281.0529441678474
 31
0.0
 11
182.7805575419841
 21
280.5760231994237
 31
0.0
 11
184.4289321881346
 21
279.9105339059329
 31
0.0
  0
SPLINE
  5
212
330
1F
100
AcDbEntity
  8
0
  6
Continuous
 62
     7
100
AcDbSpline
210
0.0
220
0.0
230
1.0
 70
     8
 71
     3
 72
    17
 73
    13
 74
    11
 42
0.000000001
 43
0.0000000001
 44
0.00000001
 40
0.0
 40
0.0
 40
0.0
 40
0.0
 40
1.439564838844031
 40
3.048985834821824
 40
4.799014919309537
 40
6.648690768217755
 40
8.549898911421886
 40
10.45110705462599
 40
12.30078290353421
 40
14.05081198802195
 40
15.66023298399977
 40
17.0997978228438
 40
17.0997978228438
 40
17.0997978228438
 40
17.0997978228438
 10
185.5228301855464
 20
273.488248654052
 30
0.0
 10
185.1147243534851
 20
273.2339400659566
 30
0.0
 10
184.2503597330885
 20
272.6953167026255
 30
0.0
 10
182.7439514696924
 20
272.1312424290677
 30
0.0
 10
181.0610136815394
 20
271.6970140021837
 30
0.0
 10
179.2424454243119
 20
271.4344429806058
 30
0.0
 10
177.3578643762692
 20
271.3448704631696
 30
0.0
 10
175.4732833282265
 20
271.4344429806058
 30
0.0
 10
173.654715070999
 20
271.6970140021837
 30
0.0
 10
171.9717772828459
 20
272.1312424290677
 30
0.0
 10
170.4653690194498
 20
272.6953167026255
 30
0.0
 10
169.6010043990532
 20
273.2339400659566
 30
0.0
 10
169.1928985669919
 20
273.488248654052
 30
0.0
 11
185.5228301855464
 21
273.488248654052
 31
0.0
 11
184.2778455513402
 21
272.765503758016
 31
0.0
 11
182.7810137577385
 21
272.1741235799459
 31
0.0
 11
181.0868099386232
 21
271.7356315909403
 31
0.0
 11
179.2568941394229
 21
271.4659856906236
 31
0.0
 11
177.3578643762692
 21
271.3750002013269
 31
0.0
 11
175.4588346131155
 21
271.4659856906236
 31
0.0
 11
173.6289188139152
 21
271.7356315909403
 31
0.0
 11
171.9347149947998
 21
272.1741235799459
 31
0.0
 11
170.437883201198
 21
272.765503758016
 31
0.0
 11
169.1928985669919
 21
273.488248654052
 31
0.0
  0
SPLINE
  5
213
330
1F
100
AcDbEntity
  8
0
  6
Continuous
 62
     7
100
AcDbSpline
210
0.0
220
0.0
230
1.0
 70
     8
 71
     3
 72
    15
 73
    11
 74
     9
 42
0.000000001
 43
0.0000000001
 44
0.00000001
 40
0.0
 40
0.0
 40
0.0
 40
0.0
 40
1.074116795861863
 40
2.288856027564458
 40
3.670055202993354
 40
5.218660551567304
 40
6.918096503393735
 40
8.73979198106279
 40
10.64713225399784
 40
12.59849999358465
 40
12.59849999358465
 40
12.59849999358465
 40
12.59849999358465
 10
166.2845097961013
 20
277.3678895132234
 30
0.0
 10
166.4388992728204
 20
277.6934463520285
 30
0.0
 10
166.7678907762271
 20
278.3871816389778
 30
0.0
 10
167.6483730813737
 20
279.2647960835286
 30
0.0
 10
168.7808061572511
 20
280.0600009650097
 30
0.0
 10
170.1734177497281
 20
280.7394090814783
 30
0.0
 10
171.7741361840368
 20
281.291103000981
 30
0.0
 10
173.5408527155256
 20
281.6942766841732
 30
0.0
 10
175.4205285670265
 20
281.951822381226
 30
0.0
 10
176.7071922059156
 20
281.9838191023385
 30
0.0
 10
177.3578643762691
 20
282.0000000000001
 30
0.0
 11
166.2845097961013
 21
277.3678895132234
 31
0.0
 11
166.7961557617291
 21
278.3123180749261
 31
0.0
 11
167.6273803292613
 21
279.1981268219356
 31
0.0
 11
168.7530330006556
 21
279.99851249306
 31
0.0
 11
170.1390526335902
 21
280.689257092008
 31
0.0
 11
171.7435013850832
 21
281.2494595176131
 31
0.0
 11
173.5178308197866
 21
281.6621694290304
 31
0.0
 11
175.4083532201576
 21
281.9148984738981
 31
0.0
 11
177.3578643762691
 21
282.0000000000001
 31
0.0
  0
SPLINE
  5
214
330
1F
100
AcDbEntity
  8
0
  6
Continuous
 62
     7
100
AcDbSpline
210
0.0
220
0.0
230
1.0
 70
     8
 71
     3
 72
    19
 73
    15
 74
    13
 42
0.000000001
 43
0.0000000001
 44
0.00000001
 40
0.0
 40
0.0
 40
0.0
 40
0.0
 40
0.8947767483000176
 40
1.882157289739665
 40
3.021006203790416
 40
4.331640372393498
 40
5.805824422361943
 40
7.416415521631777
 40
9.124063085585764
 40
10.88200366699974
 40
12.63994424829523
 40
14.34759181190273
 40
15.95818291165719
 40
17.43236696979395
 40
17.43236696979395
 40
17.43236696979395
 40
17.43236696979395
 10
168.3578643762692
 20
275.5089745962157
 30
0.0
 10
168.3943109085295
 20
275.8085676167422
 30
0.0
 10
168.4709759696298
 20
276.4387596570289
 30
0.0
 10
169.0456661845058
 20
277.3020292346727
 30
0.0
 10
169.8950725300755
 20
278.0765338693532
 30
0.0
 10
171.027977043319
 20
278.7474643506882
 30
0.0
 10
172.3907880146307
 20
279.2956699525068
 30
0.0
 10
173.9395363445086
 20
279.7024478153923
 30
0.0
 10
175.6159748784063
 20
279.9529413495484
 30
0.0
 10
177.3577523781015
 20
280.0371867591448
 30
0.0
 10
179.1001954024784
 20
279.9537734586182
 30
0.0
 10
180.7747306889055
 20
279.6993061474787
 30
0.0
 10
182.3298518292494
 20
279.3063237071844
 30
0.0
 10
183.2717171353813
 20
278.8899405691321
 30
0.0
 10
183.721825406948
 20
278.6909551115551
 30
0.0
 11
168.3578643762692
 21
275.5089745962157
 31
0.0
 11
168.5307972713136
 21
276.3868810036486
 31
0.0
 11
169.0429485836676
 21
277.2310500418586
 31
0.0
 11
169.8746382204805
 21
278.0090405262241
 31
0.0
 11
170.9939033455902
 21
278.6909551115551
 31
0.0
 11
172.3577325162522
 21
279.25058767411
 31
0.0
 11
173.9137134849834
 21
279.6664324925165
 31
0.0
 11
175.6020515614033
 21
279.9225081486935
 31
0.0
 11
177.3578643762692
 21
280.0089745962157
 31
0.0
 11
179.113677191135
 21
279.9225081486935
 31
0.0
 11
180.802015267555
 21
279.6664324925165
 31
0.0
 11
182.3579962362861
 21
279.25058767411
 31
0.0
 11
183.721825406948
 21
278.6909551115551
 31
0.0
  0
SPLINE
  5
215
330
1F
100
AcDbEntity
  8
0
  6
Continuous
 62
     7
100
AcDbSpline
210
0.0
220
0.0
230
1.0
 70
     8
 71
     3
 72
    11
 73
     7
 74
     5
 42
0.000000001
 43
0.0000000001
 44
0.00000001
 40
0.0
 40
0.0
 40
0.0
 40
0.0
 40
1.310634170293167
 40
2.449483080022629
 40
3.436863616035419
 40
4.331640370859994
 40
4.331640370859994
 40
4.331640370859994
 40
4.331640370859994
 10
183.721825406948
 20
278.6909551115551
 30
0.0
 10
184.1058917381003
 20
278.4790826270637
 30
0.0
 10
184.8236846900678
 20
278.0831078443068
 30
0.0
 10
185.6694133942163
 20
277.3006200936416
 30
0.0
 10
186.2448886619958
 20
276.4390546283618
 30
0.0
 10
186.3214616283306
 20
275.8086626629585
 30
0.0
 10
186.3578643762692
 20
275.5089745962157
 30
0.0
 11
183.721825406948
 21
278.6909551115551
 31
0.0
 11
184.8410905320578
 21
278.0090405262242
 31
0.0
 11
185.6727801688708
 21
277.2310500418586
 31
0.0
 11
186.1849314812248
 21
276.3868810036486
 31
0.0
 11
186.3578643762692
 21
275.5089745962157
 31
0.0
  0
SPLINE
  5
216
330
1F
100
AcDbEntity
  8
0
  6
Continuous
 62
     7
100
AcDbSpline
210
0.0
220
0.0
230
1.0
 70
     8
 71
     3
 72
    15
 73
    11
 74
     9
 42
0.000000001
 43
0.0000000001
 44
0.00000001
 40
0.0
 40
0.0
 40
0.0
 40
0.0
 40
1.30834062308068
 40
2.46436069013892
 40
3.479663354600437
 40
4.391925784721781
 40
5.266365071007557
 40
6.180863983214548
 40
7.199939710862153
 40
8.360420279441348
 40
8.360420279441348
 40
8.360420279441348
 40
8.360420279441348
 10
184.4289321881346
 20
279.9105339059329
 30
0.0
 10
184.8122747801049
 20
279.700680470373
 30
0.0
 10
185.5343301750175
 20
279.3054052923376
 30
0.0
 10
186.4222757848291
 20
278.544619968605
 30
0.0
 10
187.0469581594456
 20
277.7151600091398
 30
0.0
 10
187.372294019181
 20
276.8215123649138
 30
0.0
 10
187.3676074342015
 20
275.9010704822453
 30
0.0
 10
187.0314934018335
 20
275.0108262595606
 30
0.0
 10
186.4043019901662
 20
274.1745196493362
 30
0.0
 10
185.8290935448722
 20
273.7266903767343
 30
0.0
 10
185.5228301855464
 20
273.488248654052
 30
0.0
 11
184.4289321881346
 21
279.9105339059329
 31
0.0
 11
185.5526917001536
 21
279.2405191658515
 31
0.0
 11
186.4258116135554
 21
278.4828622406242
 31
0.0
 11
187.02158661777
 21
277.6607359436188
 31
0.0
 11
187.3217957280335
 21
276.7992852864895
 31
0.0
 11
187.3172560827532
 21
275.924857782322
 31
0.0
 11
187.0081074638939
 21
275.0641979220961
 31
0.0
 11
186.4038043053428
 21
274.24362919537
 31
0.0
 11
185.5228301855464
 21
273.488248654052
 31
0.0
  0
SPLINE
  5
217
330
1F
100
AcDbEntity
  8
0
  6
Continuous
 62
     7
100
AcDbSpline
210
0.0
220
0.0
230
1.0
 70
     8
 71
     3
 72
    11
 73
     7
 74
     5
 42
0.000000001
 43
0.0000000001
 44
0.00000001
 40
0.0
 40
0.0
 40
0.0
 40
0.0
 40
0.7708539928279228
 40
1.468899348528335
 40
2.110280331031124
 40
2.720198466314709
 40
2.720198466314709
 40
2.720198466314709
 40
2.720198466314709
 10
169.6334442254315
 20
273.1995735194572
 30
0.0
 10
169.4424814704222
 20
273.3726767303362
 30
0.0
 10
169.0785927689581
 20
273.70253323216
 30
0.0
 10
168.6731315567497
 20
274.2827888679228
 30
0.0
 10
168.4077665722653
 20
274.8867308562984
 30
0.0
 10
168.3742172471303
 20
275.30506624418
 30
0.0
 10
168.3578643762692
 20
275.5089745962157
 30
0.0
 11
169.6334442254315
 21
273.1995735194572
 31
0.0
 11
169.0830449294801
 21
273.7392738926117
 31
0.0
 11
168.6826185193053
 21
274.3110483337489
 31
0.0
 11
168.4394224961476
 21
274.9045340223794
 31
0.0
 11
168.3578643762692
 21
275.5089745962157
 31
0.0
  0
SPLINE
  5
218
330
1F
100
AcDbEntity
  8
0
  6
Continuous
 62
     7
100
AcDbSpline
210
0.0
220
0.0
230
1.0
 70
     8
 71
     3
 72
    11
 73
     7
 74
     5
 42
0.000000001
 43
0.0000000001
 44
0.00000001
 40
0.0
 40
0.0
 40
0.0
 40
0.0
 40
0.6099181352835923
 40
1.25129911778636
 40
1.949344473486789
 40
2.720198466314752
 40
2.720198466314752
 40
2.720198466314752
 40
2.720198466314752
 10
186.3578643762692
 20
275.5089745962157
 30
0.0
 10
186.3415115054081
 20
275.3050662441801
 30
0.0
 10
186.307962180273
 20
274.8867308562983
 30
0.0
 10
186.0425971957887
 20
274.2827888679228
 30
0.0
 10
185.6371359835801
 20
273.70253323216
 30
0.0
 10
185.2732472821162
 20
273.3726767303364
 30
0.0
 10
185.0822845271068
 20
273.1995735194572
 30
0.0
 11
186.3578643762692
 21
275.5089745962157
 31
0.0
 11
186.2763062563907
 21
274.9045340223794
 31
0.0
 11
186.0331102332331
 21
274.3110483337489
 31
0.0
 11
185.6326838230582
 21
273.7392738926117
 31
0.0
 11
185.0822845271068
 21
273.1995735194572
 31
0.0
  0
SPLINE
  5
219
330
1F
100
AcDbEntity
  8
0
  6
Continuous
 62
     7
100
AcDbSpline
210
0.0
220
0.0
230
1.0
 70
     8
 71
     3
 72
    11
 73
     7
 74
     5
 42
0.000000001
 43
0.0000000001
 44
0.00000001
 40
0.0
 40
0.0
 40
0.0
 40
0.0
 40
0.2371398032787933
 40
0.4769505932232297
 40
0.7140473239914511
 40
0.9535876883528005
 40
0.9535876883528005
 40
0.9535876883528005
 40
0.9535876883528005
 10
191.7478740353859
 20
268.1205117284361
 30
0.0
 10
191.7745095762862
 20
268.0460878114005
 30
0.0
 10
191.8280806491127
 20
267.8964017102484
 30
0.0
 10
191.9076111744624
 20
267.6720659357967
 30
0.0
 10
191.9869763775689
 20
267.4468230857778
 30
0.0
 10
192.0393595637042
 20
267.2968278488586
 30
0.0
 10
192.0656854293172
 20
267.2214457284692
 30
0.0
 11
191.7478740353859
 21
268.1205117284361
 31
0.0
 11
191.8276698154401
 21
267.8972004663144
 31
0.0
 11
191.9078406469362
 21
267.671187518096
 31
0.0
 11
191.9866025701452
 21
267.4475551876875
 31
0.0
 11
192.0656854293172
 21
267.2214457284692
 31
0.0
  0
SPLINE
  5
21A
330
1F
100
AcDbEntity
  8
0
  6
Continuous
 62
     7
100
AcDbSpline
210
0.0
220
0.0
230
1.0
 70
     8
 71
     3
 72
    23
 73
    19
 74
    17
 42
0.000000001
 43
0.0000000001
 44
0.00000001
 40
0.0
 40
0.0
 40
0.0
 40
0.0
 40
1.64908566588125
 40
3.079422211904302
 40
4.697481757327663
 40
5.992861955601517
 40
6.808293339730385
 40
7.530807735434106
 40
8.145151451226043
 40
8.791913250544077
 40
9.517239901343531
 40
10.35438426546788
 40
11.46287586365814
 40
12.7695904900553
 40
14.84769632520302
 40
17.35048176817579
 40
19.48254466295981
 40
21.87990986511783
 40
21.87990986511783
 40
21.87990986511783
 40
21.87990986511783
 10
162.650043327589
 20
264.9587040412037
 30
0.0
 10
162.9152084579219
 20
265.4403770093717
 30
0.0
 10
163.4103649084755
 20
266.3398296336081
 30
0.0
 10
164.2610053546311
 20
267.6560380658722
 30
0.0
 10
165.1511104221727
 20
268.8020672005213
 30
0.0
 10
166.0688777309034
 20
269.6546454180722
 30
0.0
 10
166.8974767388572
 20
270.1251054121409
 30
0.0
 10
167.6052054739459
 20
270.2997780260382
 30
0.0
 10
168.2741601540948
 20
270.2533138085526
 30
0.0
 10
168.9027837068235
 20
270.0226704118493
 30
0.0
 10
169.5212391022299
 20
269.6137983956319
 30
0.0
 10
170.169289276153
 20
268.9985654093321
 30
0.0
 10
170.8469054096611
 20
268.1487089444482
 30
0.0
 10
171.655764011558
 20
266.8860176664951
 30
0.0
 10
172.5643438730601
 20
265.1436770150861
 30
0.0
 10
173.464106803255
 20
263.0938631399437
 30
0.0
 10
174.3221448575392
 20
260.9120055411239
 30
0.0
 10
174.8275948301242
 20
259.4892236401021
 30
0.0
 10
175.0951226764673
 20
258.736164366776
 30
0.0
 11
162.650043327589
 21
264.9587040412037
 31
0.0
 11
163.4634563380885
 21
266.3932223692949
 31
0.0
 11
164.2430050827483
 21
267.592458122163
 31
0.0
 11
165.2542646930692
 21
268.8555775522626
 31
0.0
 11
166.2238297152248
 21
269.7146197674123
 31
0.0
 11
166.9403782750569
 21
270.1038324400673
 31
0.0
 11
167.6440601199841
 21
270.2677193344314
 31
0.0
 11
168.2570083338264
 21
270.2263346855082
 31
0.0
 11
168.8667883481285
 21
270.010767618895
 31
0.0
 11
169.477372974453
 21
269.6192511242314
 31
0.0
 11
170.0911048423155
 21
269.049914771899
 31
0.0
 11
170.7911918644549
 21
268.1904778709271
 31
0.0
 11
171.5039417540049
 21
267.0952652375176
 31
0.0
 11
172.4796819769271
 21
265.2604750899782
 31
0.0
 11
173.4975533767085
 21
262.9740208929285
 31
0.0
 11
174.2793135750197
 21
260.9904525968995
 31
0.0
 11
175.0951226764673
 21
258.736164366776
 31
0.0
  0
SPLINE
  5
21B
330
1F
100
AcDbEntity
  8
0
  6
Continuous
 62
     7
100
AcDbSpline
210
0.0
220
0.0
230
1.0
 70
     8
 71
     3
 72
    20
 73
    16
 74
    14
 42
0.000000001
 43
0.0000000001
 44
0.00000001
 40
0.0
 40
0.0
 40
0.0
 40
0.0
 40
0.061568552573222
 40
0.1098712806576119
 40
0.1512986210285314
 40
0.1864610130041091
 40
0.2179691451549551
 40
0.2540930038580848
 40
0.3874115715022284
 40
0.5942691314717534
 40
0.7195258761638806
 40
0.8885577006189049
 40
1.107692557391446
 40
1.391999655948755
 40
1.71319461403347
 40
1.71319461403347
 40
1.71319461403347
 40
1.71319461403347
 10
161.7127850273859
 20
263.9253160179366
 30
0.0
 10
161.7131953583927
 20
263.9047748057524
 30
0.0
 10
161.7139276119175
 20
263.8681182793274
 30
0.0
 10
161.7222243005081
 20
263.8181800692511
 30
0.0
 10
161.7364391312435
 20
263.778629458423
 30
0.0
 10
161.7636196445571
 20
263.7513584042719
 30
0.0
 10
161.7999029011742
 20
263.7486188556474
 30
0.0
 10
161.8631401025493
 20
263.7731391852363
 30
0.0
 10
161.9571439983654
 20
263.8605397995278
 30
0.0
 10
162.0547823205023
 20
263.9801727589239
 30
0.0
 10
162.1522752993046
 20
264.11608369936
 30
0.0
 10
162.2469128753975
 20
264.2586534186572
 30
0.0
 10
162.3647670301928
 20
264.4493901079197
 30
0.0
 10
162.5028204136976
 20
264.6871287896364
 30
0.0
 10
162.5990155842931
 20
264.8645755393215
 30
0.0
 10
162.650043327589
 20
264.9587040412037
 30
0.0
 11
161.7127850273859
 21
263.9253160179366
 31
0.0
 11
161.7156780078998
 21
263.8638154606777
 31
0.0
 11
161.7241349178315
 21
263.8162588180999
 31
0.0
 11
161.7402361383085
 21
263.7780884727112
 31
0.0
 11
161.7664212673388
 21
263.7546207734
 31
0.0
 11
161.7977118083026
 21
263.7509242093149
 31
0.0
 11
161.832054218253
 21
263.7621283260182
 31
0.0
 11
161.9366815531077
 21
263.8447537586357
 31
0.0
 11
162.0699370261643
 21
264.0029720547977
 31
0.0
 11
162.1432147960569
 21
264.1045575879621
 31
0.0
 11
162.2370098055922
 21
264.245178546143
 31
0.0
 11
162.352597153455
 21
264.4313495709521
 31
0.0
 11
162.4955045918556
 21
264.6771299410963
 31
0.0
 11
162.650043327589
 21
264.9587040412037
 31
0.0
  0
SPLINE
  5
21C
330
1F
100
AcDbEntity
  8
0
  6
Continuous
 62
     7
100
AcDbSpline
210
0.0
220
0.0
230
1.0
 70
     8
 71
     3
 72
    11
 73
     7
 74
     5
 42
0.000000001
 43
0.0000000001
 44
0.00000001
 40
0.0
 40
0.0
 40
0.0
 40
0.0
 40
0.2394878942693854
 40
0.4764503019276636
 40
0.7162905185177435
 40
0.9535876750564538
 40
0.9535876750564538
 40
0.9535876750564538
 40
0.9535876750564538
 10
162.6500433275938
 20
267.2214457410146
 30
0.0
 10
162.6763634155158
 20
267.2968113532185
 30
0.0
 10
162.728726050608
 20
267.4467478150032
 30
0.0
 10
162.8080735605368
 20
267.6719412823273
 30
0.0
 10
162.8876095459061
 20
267.896293673212
 30
0.0
 10
162.941201534061
 20
268.0460384162729
 30
0.0
 10
162.9678547171525
 20
268.1205117284361
 30
0.0
 11
162.6500433275938
 21
267.2214457410146
 31
0.0
 11
162.7291088106146
 21
267.4475056908083
 31
0.0
 11
162.8078258643491
 21
267.6710114135652
 31
0.0
 11
162.8880061616776
 21
267.8970522271933
 31
0.0
 11
162.9678547171525
 21
268.1205117284361
 31
0.0
  0
SPLINE
  5
21D
330
1F
100
AcDbEntity
  8
0
  6
Continuous
 62
     7
100
AcDbSpline
210
0.0
220
0.0
230
1.0
 70
     8
 71
     3
 72
    15
 73
    11
 74
     9
 42
0.000000001
 43
0.0000000001
 44
0.00000001
 40
0.0
 40
0.0
 40
0.0
 40
0.0
 40
0.9753318775848748
 40
1.843361695355916
 40
2.301257695069931
 40
2.720569633211751
 40
3.011739338005407
 40
3.273445267314498
 40
3.357238053303063
 40
3.434159812924179
 40
3.434159812924179
 40
3.434159812924179
 40
3.434159812924179
 10
162.6500433275938
 20
267.2214457410146
 30
0.0
 10
162.5439546991559
 20
266.9141281221853
 30
0.0
 10
162.3434488700649
 20
266.3333027277398
 30
0.0
 10
162.1076837747704
 20
265.6032492033159
 30
0.0
 10
161.9418029537775
 20
265.045622926702
 30
0.0
 10
161.840280329109
 20
264.6695474411389
 30
0.0
 10
161.7671763769789
 20
264.3537745163397
 30
0.0
 10
161.7300568791287
 20
264.1446296792021
 30
0.0
 10
161.7149186544506
 20
264.0045288730357
 30
0.0
 10
161.713475677093
 20
263.9509568481537
 30
0.0
 10
161.7127850273859
 20
263.9253160179366
 30
0.0
 11
162.6500433275938
 21
267.2214457410146
 31
0.0
 11
162.3350395596038
 21
266.2983829626479
 31
0.0
 11
162.069872124831
 21
265.4718468194341
 31
0.0
 11
161.9400850066933
 21
265.032729465587
 31
0.0
 11
161.8320403713591
 21
264.6275765831702
 31
0.0
 11
161.7675512168985
 21
264.3436383049514
 31
0.0
 11
161.7241375916436
 21
264.0855583747737
 31
0.0
 11
161.7158458048297
 21
264.0021768605185
 31
0.0
 11
161.7127850273859
 21
263.9253160179366
 31
0.0
  0
SPLINE
  5
21E
330
1F
100
AcDbEntity
  8
0
  6
Continuous
 62
     7
100
AcDbSpline
210
0.0
220
0.0
230
1.0
 70
     8
 71
     3
 72
     9
 73
     5
 74
     3
 42
0.000000001
 43
0.0000000001
 44
0.00000001
 40
0.0
 40
0.0
 40
0.0
 40
0.0
 40
0.0183178622233997
 40
0.0366190904924615
 40
0.0366190904924615
 40
0.0366190904924615
 40
0.0366190904924615
 10
175.1280829853765
 20
221.3737385689908
 30
0.0
 10
175.1225614751977
 20
221.376345775305
 30
0.0
 10
175.111523477429
 20
221.3815578384291
 30
0.0
 10
175.1005879514079
 20
221.386981606401
 30
0.0
 10
175.0951226764722
 20
221.3896922675159
 30
0.0
 11
175.1280829853765
 21
221.3737385689908
 31
0.0
 11
175.1115441003581
 21
221.3816131712753
 31
0.0
 11
175.0951226764722
 21
221.3896922675159
 31
0.0
  0
SPLINE
  5
21F
330
1F
100
AcDbEntity
  8
0
  6
Continuous
 62
     7
100
AcDbSpline
210
0.0
220
0.0
230
1.0
 70
     8
 71
     3
 72
     9
 73
     5
 74
     3
 42
0.000000001
 43
0.0000000001
 44
0.00000001
 40
0.0
 40
0.0
 40
0.0
 40
0.0
 40
0.0183012282690237
 40
0.0366190904924614
 40
0.0366190904924614
 40
0.0366190904924614
 40
0.0366190904924614
 10
179.6206060760661
 20
221.3896922675159
 30
0.0
 10
179.6151408011304
 20
221.3869816064009
 30
0.0
 10
179.6042052751091
 20
221.3815578384292
 30
0.0
 10
179.5931672773407
 20
221.376345775305
 30
0.0
 10
179.5876457671618
 20
221.3737385689908
 30
0.0
 11
179.6206060760661
 21
221.3896922675159
 31
0.0
 11
179.6041846521802
 21
221.3816131712753
 31
0.0
 11
179.5876457671618
 21
221.3737385689908
 31
0.0
  0
SPLINE
  5
220
330
1F
100
AcDbEntity
  8
0
  6
Continuous
 62
     7
100
AcDbSpline
210
0.0
220
0.0
230
1.0
 70
     8
 71
     3
 72
    23
 73
    19
 74
    17
 42
0.000000001
 43
0.0000000001
 44
0.00000001
 40
0.0
 40
0.0
 40
0.0
 40
0.0
 40
0.2303833069001869
 40
0.5131219115386396
 40
0.7596244394909707
 40
1.071951582074133
 40
1.389942238466977
 40
1.666777515258197
 40
1.972747705368271
 40
2.280405355905668
 40
2.588063010689662
 40
2.894033196577489
 40
3.193508154686538
 40
3.48886067534556
 40
3.761151378717456
 40
4.047689361776788
 40
4.33042796636506
 40
4.56081127329146
 40
4.56081127329146
 40
4.56081127329146
 40
4.56081127329146
 10
175.1280829853765
 20
221.3737385689908
 30
0.0
 10
175.19848770601
 20
221.3429749519505
 30
0.0
 10
175.3552968393057
 20
221.2744566140563
 30
0.0
 10
175.59697334177
 20
221.1974456061749
 30
0.0
 10
175.8687628528127
 20
221.1277711862836
 30
0.0
 10
176.1558459053399
 20
221.071867578932
 30
0.0
 10
176.4553923357691
 20
221.0297292025242
 30
0.0
 10
176.7543410481054
 20
221.0008684741198
 30
0.0
 10
177.0507506782953
 20
220.9838316691102
 30
0.0
 10
177.3578642655573
 20
220.9780226190365
 30
0.0
 10
177.6649785229749
 20
220.9838314850081
 30
0.0
 10
177.9689222642009
 20
221.0013023538968
 30
0.0
 10
178.2678436119919
 20
221.0306113987596
 30
0.0
 10
178.5540840753674
 20
221.0714239430141
 30
0.0
 10
178.8338767168826
 20
221.1249539891579
 30
0.0
 10
179.1060305439774
 20
221.1933710952416
 30
0.0
 10
179.3604294639621
 20
221.2744596862294
 30
0.0
 10
179.5172402875727
 20
221.342975903935
 30
0.0
 10
179.5876457671618
 20
221.3737385689908
 30
0.0
 11
175.1280829853765
 21
221.3737385689908
 31
0.0
 11
175.3405957570597
 21
221.2847734667497
 31
0.0
 11
175.609227488148
 21
221.1965798618901
 31
0.0
 11
175.8479891124246
 21
221.1352905225445
 31
0.0
 11
176.1544235570437
 21
221.0749069573533
 31
0.0
 11
176.4692653833348
 21
221.030267493709
 31
0.0
 11
176.7448034483701
 21
221.0034991356761
 31
0.0
 11
177.0502625095354
 21
220.9858209303796
 31
0.0
 11
177.3578643762748
 21
220.9799624950201
 31
0.0
 11
177.6654662472585
 21
220.9858209305423
 31
0.0
 11
177.9709253042038
 21
221.0034991356789
 31
0.0
 11
178.2689499717836
 21
221.0329363198838
 31
0.0
 11
178.5613051954908
 21
221.0749069573526
 31
0.0
 11
178.8286570347011
 21
221.1265327363109
 31
0.0
 11
179.1065012644199
 21
221.1965798618986
 31
0.0
 11
179.3751329954581
 21
221.284773466742
 31
0.0
 11
179.5876457671618
 21
221.3737385689908
 31
0.0
  0
SPLINE
  5
221
330
1F
100
AcDbEntity
  8
0
  6
Continuous
 62
     7
100
AcDbSpline
210
0.0
220
0.0
230
1.0
 70
     8
 71
     3
 72
     9
 73
     5
 74
     3
 42
0.000000001
 43
0.0000000001
 44
0.00000001
 40
0.0
 40
0.0
 40
0.0
 40
0.0
 40
0.0000352603701176
 40
0.0000705210743096
 40
0.0000705210743096
 40
0.0000705210743096
 40
0.0000705210743096
 10
179.8328011860845
 20
219.1360915450686
 30
0.0
 10
179.8327906734859
 20
219.1360862887376
 30
0.0
 10
179.8327696482271
 20
219.13607577595
 30
0.0
 10
179.8327486230442
 20
219.1360652630104
 30
0.0
 10
179.832738110422
 20
219.1360600064776
 30
0.0
 11
179.8328011860845
 21
219.1360915450686
 31
0.0
 11
179.8327696483267
 21
219.1360757759998
 31
0.0
 11
179.832738110422
 21
219.1360600064776
 31
0.0
  0
SPLINE
  5
222
330
1F
100
AcDbEntity
  8
0
  6
Continuous
 62
     7
100
AcDbSpline
210
0.0
220
0.0
230
1.0
 70
     8
 71
     3
 72
    21
 73
    17
 74
    15
 42
0.000000001
 43
0.0000000001
 44
0.00000001
 40
0.0
 40
0.0
 40
0.0
 40
0.0
 40
0.2561979799409536
 40
0.570062400342449
 40
0.8879367045305794
 40
1.191831369946259
 40
1.857596399706652
 40
2.537250570546617
 40
2.880030009066604
 40
3.220925053265928
 40
3.554211106821128
 40
3.882990990242819
 40
4.230846957839065
 40
4.504760846191861
 40
4.818625419430193
 40
5.074823497921578
 40
5.074823497921578
 40
5.074823497921578
 40
5.074823497921578
 10
174.882990642113
 20
219.1360600064793
 30
0.0
 10
174.9604447651682
 20
219.0999743185571
 30
0.0
 10
175.1327868166887
 20
219.0196805991392
 30
0.0
 10
175.4137204585693
 20
218.9247135529425
 30
0.0
 10
175.7152498711919
 20
218.8445432379962
 30
0.0
 10
176.1361707045487
 20
218.759638576088
 30
0.0
 10
176.682668249903
 20
218.6923341173145
 30
0.0
 10
177.2455809855356
 20
218.6703732002779
 30
0.0
 10
177.7000361338732
 20
218.6793675802907
 30
0.0
 10
178.0385060590297
 20
218.699795511657
 30
0.0
 10
178.3711776540893
 20
218.7340624426377
 30
0.0
 10
178.7042051626313
 20
218.7840229363577
 30
0.0
 10
179.0148239896301
 20
218.8478038283621
 30
0.0
 10
179.3159015585964
 20
218.929430979511
 30
0.0
 10
179.5829449864225
 20
219.0196772565543
 30
0.0
 10
179.7552849362816
 20
219.0999732834832
 30
0.0
 10
179.832738110422
 20
219.1360600064776
 30
0.0
 11
174.882990642113
 21
219.1360600064793
 31
0.0
 11
175.1169728003862
 21
219.0317060228474
 31
0.0
 11
175.4133692683968
 21
218.9284587055061
 31
0.0
 11
175.7205103425286
 21
218.8465536757589
 31
0.0
 11
176.0182897392281
 21
218.7858956311609
 31
0.0
 11
176.6787551256119
 21
218.7020592000764
 31
0.0
 11
177.3578643838924
 21
218.6748487956486
 31
0.0
 11
177.7005753784834
 21
218.6816984205475
 31
0.0
 11
178.0408427819583
 21
218.7023750981864
 31
0.0
 11
178.3723478602795
 21
218.7367840543101
 31
0.0
 11
178.6974390233738
 21
218.7858956329417
 31
0.0
 11
179.0380158491833
 21
218.8566854603992
 31
0.0
 11
179.3023592434434
 21
218.9284586322816
 31
0.0
 11
179.5987558604878
 21
219.0317059864041
 31
0.0
 11
179.832738110422
 21
219.1360600064776
 31
0.0
  0
SPLINE
  5
223
330
1F
100
AcDbEntity
  8
0
  6
Continuous
 62
     7
100
AcDbSpline
210
0.0
220
0.0
230
1.0
 70
     8
 71
     3
 72
     9
 73
     5
 74
     3
 42
0.000000001
 43
0.0000000001
 44
0.00000001
 40
0.0
 40
0.0
 40
0.0
 40
0.0
 40
0.0000352607022346
 40
0.0000705210704965
 40
0.0000705210704965
 40
0.0000705210704965
 40
0.0000705210704965
 10
174.882990642113
 20
219.1360600064793
 30
0.0
 10
174.8829801294914
 20
219.1360652630117
 30
0.0
 10
174.8829591043097
 20
219.1360757759508
 30
0.0
 10
174.8829380790519
 20
219.1360862887379
 30
0.0
 10
174.8829275664539
 20
219.1360915450686
 30
0.0
 11
174.882990642113
 21
219.1360600064793
 31
0.0
 11
174.88295910421
 21
219.1360757760006
 31
0.0
 11
174.8829275664539
 21
219.1360915450686
 31
0.0
  0
SPLINE
  5
224
330
1F
100
AcDbEntity
  8
0
  6
Continuous
 62
     7
100
AcDbSpline
210
0.0
220
0.0
230
1.0
 70
     8
 71
     3
 72
    15
 73
    11
 74
     9
 42
0.000000001
 43
0.0000000001
 44
0.00000001
 40
0.0
 40
0.0
 40
0.0
 40
0.0
 40
0.0897117260683867
 40
0.173718167335284
 40
0.2588219250019916
 40
0.3559383926408002
 40
0.5508396803815938
 40
0.7548793905937051
 40
1.219971781627997
 40
1.725895203150178
 40
1.725895203150178
 40
1.725895203150178
 40
1.725895203150178
 10
159.7157287525382
 20
227.4959166075141
 30
0.0
 10
159.7166129540989
 20
227.466000223255
 30
0.0
 10
159.7183251394526
 20
227.4080700104755
 30
0.0
 10
159.7314583274792
 20
227.3226132458796
 30
0.0
 10
159.7520171314196
 20
227.2362013281497
 30
0.0
 10
159.7921018754872
 20
227.1168809179481
 30
0.0
 10
159.864861751692
 20
226.9674859503979
 30
0.0
 10
160.0284435089144
 20
226.7297389004257
 30
0.0
 10
160.3114561350476
 20
226.4509339311928
 30
0.0
 10
160.5937650430513
 20
226.2906432500863
 30
0.0
 10
160.7408550183853
 20
226.2071278183431
 30
0.0
 11
159.7157287525382
 21
227.4959166075141
 31
0.0
 11
159.7202755742448
 21
227.4063201737037
 31
0.0
 11
159.7325077006867
 21
227.3232090562186
 31
0.0
 11
159.7522448431974
 21
227.2404256331384
 31
0.0
 11
159.7830125532149
 21
227.1483118092364
 31
0.0
 11
159.8675821517851
 21
226.9727142711263
 31
0.0
 11
159.9822260427411
 21
226.8039274772906
 31
0.0
 11
160.3127347783308
 21
226.4767044535487
 31
0.0
 11
160.7408550183853
 21
226.2071278183431
 31
0.0
  0
SPLINE
  5
225
330
1F
100
AcDbEntity
  8
0
  6
Continuous
 62
     7
100
AcDbSpline
210
0.0
220
0.0
230
1.0
 70
     8
 71
     3
 72
     9
 73
     5
 74
     3
 42
0.000000001
 43
0.0000000001
 44
0.00000001
 40
0.0
 40
0.0
 40
0.0
 40
0.0
 40
0.0000352602001645
 40
0.0000705203945481
 40
0.0000705203945481
 40
0.0000705203945481
 40
0.0000705203945481
 10
160.7409180940476
 20
226.2070962812717
 30
0.0
 10
160.7409075814743
 20
226.2071015375267
 30
0.0
 10
160.7408865562916
 20
226.2071120499598
 30
0.0
 10
160.7408655310328
 20
226.207122562241
 30
0.0
 10
160.7408550183853
 20
226.2071278183431
 30
0.0
 11
160.7409180940476
 21
226.2070962812717
 31
0.0
 11
160.7408865562899
 21
226.2071120499606
 31
0.0
 11
160.7408550183853
 21
226.2071278183431
 31
0.0
  0
SPLINE
  5
226
330
1F
100
AcDbEntity
  8
0
  6
Continuous
 62
     7
100
AcDbSpline
210
0.0
220
0.0
230
1.0
 70
     8
 71
     3
 72
    15
 73
    11
 74
     9
 42
0.000000001
 43
0.0000000001
 44
0.00000001
 40
0.0
 40
0.0
 40
0.0
 40
0.0
 40
0.1919512854230958
 40
0.3800592115083525
 40
0.5447851568974834
 40
0.7112325110992778
 40
0.8555495931392096
 40
1.00970424491709
 40
1.15877441393764
 40
1.292751214126264
 40
1.292751214126264
 40
1.292751214126264
 40
1.292751214126264
 10
160.4275747522638
 20
228.5077027476008
 30
0.0
 10
160.3739475877185
 20
228.472750747961
 30
0.0
 10
160.2677670203009
 20
228.4035465664608
 30
0.0
 10
160.1258414294551
 20
228.2897190720295
 30
0.0
 10
160.0011917035923
 20
228.1692533256978
 30
0.0
 10
159.9002671927375
 20
228.046479296091
 30
0.0
 10
159.8179163238448
 20
227.9146292222476
 30
0.0
 10
159.7584525840978
 20
227.7772493485795
 30
0.0
 10
159.7219708061824
 20
227.6350646849971
 30
0.0
 10
159.7177341260289
 20
227.5406205685314
 30
0.0
 10
159.7157287525382
 20
227.4959166075141
 30
0.0
 11
160.4275747522638
 21
228.5077027476008
 31
0.0
 11
160.26852190084
 21
228.4002435224937
 31
0.0
 11
160.1218032866196
 21
228.2825224962719
 31
0.0
 11
160.003881823696
 21
228.1675043851337
 31
0.0
 11
159.8987012786836
 21
228.03850138096
 31
0.0
 11
159.8227474560804
 21
227.9157885558818
 31
0.0
 11
159.7616503296748
 21
227.7742583524037
 31
0.0
 11
159.7260873519761
 21
227.6294923659877
 31
0.0
 11
159.7157287525382
 21
227.4959166075141
 31
0.0
  0
SPLINE
  5
227
330
1F
100
AcDbEntity
  8
0
  6
Continuous
 62
     7
100
AcDbSpline
210
0.0
220
0.0
230
1.0
 70
     8
 71
     3
 72
    19
 73
    15
 74
    13
 42
0.000000001
 43
0.0000000001
 44
0.00000001
 40
0.0
 40
0.0
 40
0.0
 40
0.0
 40
0.1700245068509198
 40
0.3194837738417967
 40
0.4946892180665165
 40
0.678114059211833
 40
0.7813456529192929
 40
0.8758885564825096
 40
0.9739661038387878
 40
1.088131094802181
 40
1.207125290826599
 40
1.313723465761094
 40
1.439300217170097
 40
1.550869888469508
 40
1.550869888469508
 40
1.550869888469508
 40
1.550869888469508
 10
161.7127850273859
 20
228.8025021694618
 30
0.0
 10
161.7162829434278
 20
228.7457399748022
 30
0.0
 10
161.7228557002286
 20
228.6390812333712
 30
0.0
 10
161.771544743365
 20
228.4803218108119
 30
0.0
 10
161.8440675791452
 20
228.3267629698174
 30
0.0
 10
161.9298957626421
 20
228.198279594576
 30
0.0
 10
162.0101586580999
 20
228.099698481582
 30
0.0
 10
162.076947582608
 20
228.0270652374429
 30
0.0
 10
162.1501565415452
 20
227.9555999071399
 30
0.0
 10
162.2333564748324
 20
227.8829225290677
 30
0.0
 10
162.3227444058135
 20
227.8132791059235
 30
0.0
 10
162.4187173473648
 20
227.7462063401468
 30
0.0
 10
162.5156640198472
 20
227.6849821896156
 30
0.0
 10
162.584956454061
 20
227.6469124724564
 30
0.0
 10
162.617556291763
 20
227.6290019157975
 30
0.0
 11
161.7127850273859
 21
228.8025021694618
 31
0.0
 11
161.7303230402225
 21
228.6333846006047
 31
0.0
 11
161.7720595859242
 21
228.4898710668858
 31
0.0
 11
161.8465830435892
 21
228.3313049822346
 31
0.0
 11
161.947699835585
 21
228.1782688180848
 31
0.0
 11
162.012806987196
 21
228.0981575149191
 31
0.0
 11
162.0767473809909
 21
228.0285156687509
 31
0.0
 11
162.1468862208408
 21
227.9599609570567
 31
0.0
 11
162.2328094615651
 21
227.8847888751754
 31
0.0
 11
162.326646067299
 21
227.8116157238783
 31
0.0
 11
162.413958130471
 21
227.7504620290972
 31
0.0
 11
162.520290160715
 21
227.6836561961994
 31
0.0
 11
162.617556291763
 21
227.6290019157975
 31
0.0
  0
SPLINE
  5
228
330
1F
100
AcDbEntity
  8
0
  6
Continuous
 62
     7
100
AcDbSpline
210
0.0
220
0.0
230
1.0
 70
     8
 71
     3
 72
     9
 73
     5
 74
     3
 42
0.000000001
 43
0.0000000001
 44
0.00000001
 40
0.0
 40
0.0
 40
0.0
 40
0.0
 40
0.0182866636571588
 40
0.0365608400426095
 40
0.0365608400426095
 40
0.0365608400426095
 40
0.0365608400426095
 10
162.650043327589
 20
227.6122319419575
 30
0.0
 10
162.6445999470606
 20
227.6149755387621
 30
0.0
 10
162.6337169121992
 20
227.6204608766731
 30
0.0
 10
162.6229419354429
 20
227.6261555451779
 30
0.0
 10
162.617556291763
 20
227.6290019157975
 30
0.0
 11
162.650043327589
 21
227.6122319419575
 31
0.0
 11
162.6337402235194
 21
227.6205151096946
 31
0.0
 11
162.617556291763
 21
227.6290019157975
 31
0.0
  0
SPLINE
  5
229
330
1F
100
AcDbEntity
  8
0
  6
Continuous
 62
     7
100
AcDbSpline
210
0.0
220
0.0
230
1.0
 70
     8
 71
     3
 72
    15
 73
    11
 74
     9
 42
0.000000001
 43
0.0000000001
 44
0.00000001
 40
0.0
 40
0.0
 40
0.0
 40
0.0
 40
0.3874549512387634
 40
0.8083423444246494
 40
1.242619707435213
 40
1.667722392964812
 40
2.062794096418859
 40
2.413214965756681
 40
2.716170672721419
 40
2.986780756482442
 40
2.986780756482442
 40
2.986780756482442
 40
2.986780756482442
 10
166.5719362071
 20
226.0130205022156
 30
0.0
 10
166.5696551223076
 20
226.1426377140348
 30
0.0
 10
166.5648961108816
 20
226.4130564560336
 30
0.0
 10
166.4474222276653
 20
226.8147162950171
 30
0.0
 10
166.2636954623679
 20
227.20148339635
 30
0.0
 10
166.0181194186486
 20
227.5427561753582
 30
0.0
 10
165.7317138862514
 20
227.8131736721952
 30
0.0
 10
165.4268028005426
 20
227.986876877663
 30
0.0
 10
165.115030521259
 20
228.0624430068545
 30
0.0
 10
164.9302061142854
 20
228.0021720772514
 30
0.0
 10
164.8430053981446
 20
227.9737360625701
 30
0.0
 11
166.5719362071
 21
226.0130205022156
 31
0.0
 11
166.548629326892
 21
226.3997738139081
 31
0.0
 11
166.4385441673692
 21
226.8060095259237
 31
0.0
 11
166.250910665337
 21
227.1976605144546
 31
0.0
 11
166.0014654716401
 21
227.5418833907461
 31
0.0
 11
165.711126044707
 21
227.8098099998054
 31
0.0
 11
165.4042410843433
 21
227.9789738449741
 31
0.0
 11
165.1065460704723
 21
228.0351863275512
 31
0.0
 11
164.8430053981446
 21
227.9737360625701
 31
0.0
  0
SPLINE
  5
22A
330
1F
100
AcDbEntity
  8
0
  6
Continuous
 62
     7
100
AcDbSpline
210
0.0
220
0.0
230
1.0
 70
     8
 71
     3
 72
    11
 73
     7
 74
     5
 42
0.000000001
 43
0.0000000001
 44
0.00000001
 40
0.0
 40
0.0
 40
0.0
 40
0.0
 40
0.221457556588718
 40
0.4617260996981525
 40
0.7321987548936438
 40
1.035297019054859
 40
1.035297019054859
 40
1.035297019054859
 40
1.035297019054859
 10
164.8430053981446
 20
227.9737360625701
 30
0.0
 10
164.7805996863341
 20
227.9326254337157
 30
0.0
 10
164.650487423122
 20
227.8469121568806
 30
0.0
 10
164.5260634518567
 20
227.6286183518161
 30
0.0
 10
164.4539004797323
 20
227.3647523770591
 30
0.0
 10
164.4550878914834
 20
227.1726471529506
 30
0.0
 10
164.455715375689
 20
227.0711309179211
 30
0.0
 11
164.8430053981446
 21
227.9737360625701
 31
0.0
 11
164.6676701254924
 21
227.8384549003828
 31
0.0
 11
164.5403811330211
 21
227.6346744125462
 31
0.0
 11
164.4683667062994
 21
227.3739650321203
 31
0.0
 11
164.455715375689
 21
227.0711309179211
 31
0.0
  0
SPLINE
  5
22B
330
1F
100
AcDbEntity
  8
0
  6
Continuous
 62
     7
100
AcDbSpline
210
0.0
220
0.0
230
1.0
 70
     8
 71
     3
 72
    15
 73
    11
 74
     9
 42
0.000000001
 43
0.0000000001
 44
0.00000001
 40
0.0
 40
0.0
 40
0.0
 40
0.0
 40
0.3874549512387385
 40
0.8083423444246594
 40
1.242619707435148
 40
1.667722392964706
 40
2.062794096418834
 40
2.413214965756695
 40
2.716170672721433
 40
2.986780756482566
 40
2.986780756482566
 40
2.986780756482566
 40
2.986780756482566
 10
169.046809941253
 20
227.2504573692921
 30
0.0
 10
169.0445288564605
 20
227.3800745811112
 30
0.0
 10
169.0397698450345
 20
227.6504933231101
 30
0.0
 10
168.9222959618182
 20
228.0521531620936
 30
0.0
 10
168.7385691965209
 20
228.4389202634265
 30
0.0
 10
168.4929931528016
 20
228.7801930424346
 30
0.0
 10
168.2065876204044
 20
229.0506105392718
 30
0.0
 10
167.9016765346956
 20
229.2243137447396
 30
0.0
 10
167.5899042554119
 20
229.299879873931
 30
0.0
 10
167.4050798484383
 20
229.2396089443279
 30
0.0
 10
167.3178791322974
 20
229.2111729296466
 30
0.0
 11
169.046809941253
 21
227.2504573692921
 31
0.0
 11
169.0235030610449
 21
227.6372106809846
 31
0.0
 11
168.9134179015221
 21
228.0434463930002
 31
0.0
 11
168.7257843994899
 21
228.4350973815311
 31
0.0
 11
168.4763392057931
 21
228.7793202578225
 31
0.0
 11
168.18599977886
 21
229.0472468668819
 31
0.0
 11
167.8791148184962
 21
229.2164107120506
 31
0.0
 11
167.5814198046252
 21
229.2726231946277
 31
0.0
 11
167.3178791322974
 21
229.2111729296466
 31
0.0
  0
SPLINE
  5
22C
330
1F
100
AcDbEntity
  8
0
  6
Continuous
 62
     7
100
AcDbSpline
210
0.0
220
0.0
230
1.0
 70
     8
 71
     3
 72
    21
 73
    17
 74
    15
 42
0.000000001
 43
0.0000000001
 44
0.00000001
 40
0.0
 40
0.0
 40
0.0
 40
0.0
 40
0.7588172004013279
 40
1.567436663572908
 40
2.403164366116344
 40
3.240242771395625
 40
4.052767445920272
 40
4.817588967116155
 40
5.517495427646312
 40
6.145015445951349
 40
6.706904081791244
 40
7.227618830182786
 40
7.746159442671281
 40
8.302385964415546
 40
8.922573797770776
 40
9.615188454449834
 40
9.615188454449834
 40
9.615188454449834
 40
9.615188454449834
 10
171.5242334314801
 20
226.9856486666635
 30
0.0
 10
171.5103588171196
 20
227.238763343782
 30
0.0
 10
171.4816989626786
 20
227.7616049765278
 30
0.0
 10
171.2751359622939
 20
228.5406804069059
 30
0.0
 10
170.9630708680706
 20
229.3085161680961
 30
0.0
 10
170.5462613428268
 20
230.0278342031274
 30
0.0
 10
170.0487865137402
 20
230.6639171728283
 30
0.0
 10
169.4932467104468
 20
231.1861519217745
 30
0.0
 10
168.9054072486942
 20
231.569471095246
 30
0.0
 10
168.3106581961472
 20
231.7944603500039
 30
0.0
 10
167.7337716360574
 20
231.8451784403256
 30
0.0
 10
167.2056876759056
 20
231.7076958575819
 30
0.0
 10
166.7671357012767
 20
231.3852569715396
 30
0.0
 10
166.4499177790723
 20
230.9073164974115
 30
0.0
 10
166.253912719302
 20
230.3072878825213
 30
0.0
 10
166.2323229845378
 20
229.8686943719923
 30
0.0
 10
166.220932572581
 20
229.637299096113
 30
0.0
 11
171.5242334314801
 21
226.9856486666635
 31
0.0
 11
171.4577507457942
 21
227.7415478644206
 31
0.0
 11
171.2616374875247
 21
228.5260254150091
 31
0.0
 11
170.94572656914
 21
229.2997444115932
 31
0.0
 11
170.5258600028867
 21
230.0239076008193
 31
0.0
 11
170.0230908835826
 21
230.6622018599161
 31
0.0
 11
169.4626307321174
 21
231.1826212868748
 31
0.0
 11
168.8725830020306
 21
231.5590688023048
 31
0.0
 11
168.2825352719438
 21
231.7726690169616
 31
0.0
 11
167.7220751204786
 21
231.8127097414681
 31
0.0
 11
167.2193060011745
 21
231.6771846016754
 31
0.0
 11
166.7994394349211
 21
231.3728879787027
 31
0.0
 11
166.4835285165365
 21
230.9150799005033
 31
0.0
 11
166.2874152582669
 21
230.3267156081842
 31
0.0
 11
166.220932572581
 21
229.637299096113
 31
0.0
  0
SPLINE
  5
22D
330
1F
100
AcDbEntity
  8
0
  6
Continuous
 62
     7
100
AcDbSpline
210
0.0
220
0.0
230
1.0
 70
     8
 71
     3
 72
    19
 73
    15
 74
    13
 42
0.000000001
 43
0.0000000001
 44
0.00000001
 40
0.0
 40
0.0
 40
0.0
 40
0.0
 40
0.5935417686315635
 40
1.229044805632561
 40
1.881489457944778
 40
2.523287225044794
 40
3.128445918435496
 40
3.6769576453466
 40
4.160028934904965
 40
4.586392150590081
 40
4.986349245193416
 40
5.403176940824848
 40
5.871613336568087
 40
6.405265450515088
 40
6.405265450515088
 40
6.405265450515088
 40
6.405265450515088
 10
169.7564664785137
 20
226.9856486666635
 30
0.0
 10
169.7437680293152
 20
227.1836580804076
 30
0.0
 10
169.7174733813736
 20
227.5936754597931
 30
0.0
 10
169.531891697073
 20
228.1980446595334
 30
0.0
 10
169.2558108010159
 20
228.7809633487616
 30
0.0
 10
168.8940495284309
 20
229.3043791228633
 30
0.0
 10
168.4733338622875
 20
229.734552645857
 30
0.0
 10
168.0185063320486
 20
230.0438480937662
 30
0.0
 10
167.5552672413066
 20
230.2112867354352
 30
0.0
 10
167.1081967883437
 20
230.217704850107
 30
0.0
 10
166.7155876454482
 20
230.0465860945177
 30
0.0
 10
166.4263967414558
 20
229.7158174852861
 30
0.0
 10
166.2499738215734
 20
229.2669921306754
 30
0.0
 10
166.231024068133
 20
228.9318775207865
 30
0.0
 10
166.220932572581
 20
228.7534156196299
 30
0.0
 11
169.7564664785137
 21
226.9856486666635
 31
0.0
 11
169.6962308250401
 21
227.5761260141102
 31
0.0
 11
169.5196306147869
 21
228.1865983532575
 31
0.0
 11
169.2386991922902
 21
228.7754629908597
 31
0.0
 11
168.8725830020306
 21
229.3025904049051
 31
0.0
 11
168.4462311582973
 21
229.732056528566
 31
0.0
 11
167.9886995255474
 21
230.0345956526077
 31
0.0
 11
167.5311678927975
 21
230.189588161316
 31
0.0
 11
167.1048160490642
 21
230.1864738813883
 31
0.0
 11
166.7386998588046
 21
230.0254626576025
 31
0.0
 11
166.4577684363079
 21
229.7175294424969
 31
0.0
 11
166.2811682260546
 21
229.2836573136029
 31
0.0
 11
166.220932572581
 21
228.7534156196299
 31
0.0
  0
SPLINE
  5
22E
330
1F
100
AcDbEntity
  8
0
  6
Continuous
 62
     7
100
AcDbSpline
210
0.0
220
0.0
230
1.0
 70
     8
 71
     3
 72
    17
 73
    13
 74
    11
 42
0.000000001
 43
0.0000000001
 44
0.00000001
 40
0.0
 40
0.0
 40
0.0
 40
0.0
 40
0.2626089975077665
 40
0.5156675683879481
 40
0.7493983628057302
 40
0.9725022516650452
 40
1.083225791851346
 40
1.178331634992197
 40
1.276045152169377
 40
1.371717012272243
 40
1.550877604490263
 40
1.727279912700934
 40
1.727279912700934
 40
1.727279912700934
 40
1.727279912700934
 10
193.9748737341498
 20
226.2071278183415
 30
0.0
 10
194.0521123371753
 20
226.2484757787794
 30
0.0
 10
194.2037805635555
 20
226.3296679902274
 30
0.0
 10
194.4076870014698
 20
226.4751453254649
 30
0.0
 10
194.5857248967211
 20
226.6315906976906
 30
0.0
 10
194.7124180775757
 20
226.7728608933781
 30
0.0
 10
194.7966556015534
 20
226.88852711739
 30
0.0
 10
194.8503989742111
 20
226.9743340029517
 30
0.0
 10
194.8956146970486
 20
227.0593471502647
 30
0.0
 10
194.9448509369307
 20
227.1733477225874
 30
0.0
 10
194.9895721694177
 20
227.3183620897353
 30
0.0
 10
194.9965420842819
 20
227.4370386460949
 30
0.0
 10
195.0000000000001
 20
227.4959166075141
 30
0.0
 11
193.9748737341498
 21
226.2071278183415
 31
0.0
 11
194.2036437753066
 21
226.3360764571341
 31
0.0
 11
194.4101441170759
 21
226.4823510223105
 31
0.0
 11
194.5850931072754
 21
226.6373443611563
 31
0.0
 11
194.7335027110325
 21
226.8039274788715
 31
0.0
 11
194.7985711105245
 21
226.8935143412524
 31
0.0
 11
194.8489839810575
 21
226.9741596391138
 31
0.0
 11
194.8947216001937
 21
227.0605077826984
 31
0.0
 11
194.9327161402229
 21
227.1483116554894
 31
0.0
 11
194.9826681184538
 21
227.320367806782
 31
0.0
 11
195.0000000000001
 21
227.4959166075141
 31
0.0
  0
SPLINE
  5
22F
330
1F
100
AcDbEntity
  8
0
  6
Continuous
 62
     7
100
AcDbSpline
210
0.0
220
0.0
230
1.0
 70
     8
 71
     3
 72
    11
 73
     7
 74
     5
 42
0.000000001
 43
0.0000000001
 44
0.00000001
 40
0.0
 40
0.0
 40
0.0
 40
0.0
 40
0.4535952268059926
 40
0.8711746627673336
 40
1.221101570619524
 40
1.547042206892714
 40
1.547042206892714
 40
1.547042206892714
 40
1.547042206892714
 10
192.0981724607752
 20
227.6290019157975
 30
0.0
 10
192.2284294753159
 20
227.7070767389153
 30
0.0
 10
192.4786009946046
 20
227.8570271990258
 30
0.0
 10
192.7643188677912
 20
228.1508937493766
 30
0.0
 10
192.9618381984012
 20
228.4674331241561
 30
0.0
 10
192.9895699504968
 20
228.6934866703528
 30
0.0
 10
193.0029437251524
 20
228.8025021694618
 30
0.0
 11
192.0981724607752
 21
227.6290019157975
 31
0.0
 11
192.4763832966466
 21
227.8794119631673
 31
0.0
 11
192.7680289169498
 21
228.17826881808
 31
0.0
 11
192.9408779246075
 21
228.4825253944822
 31
0.0
 11
193.0029437251524
 21
228.8025021694618
 31
0.0
  0
SPLINE
  5
230
330
1F
100
AcDbEntity
  8
0
  6
Continuous
 62
     7
100
AcDbSpline
210
0.0
220
0.0
230
1.0
 70
     8
 71
     3
 72
    15
 73
    11
 74
     9
 42
0.000000001
 43
0.0000000001
 44
0.00000001
 40
0.0
 40
0.0
 40
0.0
 40
0.0
 40
0.9751780986973599
 40
1.843112658607595
 40
2.300741419466116
 40
2.719845475086916
 40
3.011337801504038
 40
3.273334263528636
 40
3.361802194212753
 40
3.434160470760413
 40
3.434160470760413
 40
3.434160470760413
 40
3.434160470760413
 10
192.0656854293172
 20
267.2214457284692
 30
0.0
 10
192.1717574693959
 20
266.914176599063
 30
0.0
 10
192.3722364719852
 20
266.3334297401854
 30
0.0
 10
192.6079519460727
 20
265.6035412492693
 30
0.0
 10
192.7737874244854
 20
265.046099606363
 30
0.0
 10
192.8753127066014
 20
264.6700784710282
 30
0.0
 10
192.9484720775071
 20
264.3541778837353
 30
0.0
 10
192.9859167930882
 20
264.1433032305177
 30
0.0
 10
193.0009495731944
 20
264.0030452636734
 30
0.0
 10
193.0023249255142
 20
263.949435779799
 30
0.0
 10
193.0029437251524
 20
263.9253160179366
 30
0.0
 11
192.0656854293172
 21
267.2214457284692
 31
0.0
 11
192.3806406805941
 21
266.2985288800588
 31
0.0
 11
192.6457836534618
 21
265.4720849290325
 31
0.0
 11
192.7755031836313
 21
265.0332262659213
 31
0.0
 11
192.8835146153667
 21
264.6282796769251
 31
0.0
 11
192.9480976425511
 21
264.3440318821201
 31
0.0
 11
192.9915776850828
 21
264.0856685104838
 31
0.0
 11
193.0002082889036
 21
263.9976225732285
 31
0.0
 11
193.0029437251524
 21
263.9253160179366
 31
0.0
  0
SPLINE
  5
231
330
1F
100
AcDbEntity
  8
0
  6
Continuous
 62
     7
100
AcDbSpline
210
0.0
220
0.0
230
1.0
 70
     8
 71
     3
 72
    22
 73
    18
 74
    16
 42
0.000000001
 43
0.0000000001
 44
0.00000001
 40
0.0
 40
0.0
 40
0.0
 40
0.0
 40
0.0615936065141813
 40
0.1099099955917467
 40
0.1536551081102766
 40
0.1865132744699765
 40
0.21465537303212
 40
0.2542040528732594
 40
0.3158217418422075
 40
0.3972141087412037
 40
0.4877728802023627
 40
0.5949533797656327
 40
0.7203041077217412
 40
0.88948268518024
 40
1.108826759937736
 40
1.39290159088235
 40
1.713789029454833
 40
1.713789029454833
 40
1.713789029454833
 40
1.713789029454833
 10
193.0029437251524
 20
263.9253160179366
 30
0.0
 10
193.0025313098844
 20
263.904760509236
 30
0.0
 10
193.0017953770522
 20
263.8680804707746
 30
0.0
 10
192.9933842311054
 20
263.8174292275413
 30
0.0
 10
192.9789084083901
 20
263.7777233923383
 30
0.0
 10
192.9521364648228
 20
263.7521213477654
 30
0.0
 10
192.9171360447065
 20
263.7482588807514
 30
0.0
 10
192.8759084844241
 20
263.7636115582517
 30
0.0
 10
192.825939703853
 20
263.7988977537464
 30
0.0
 10
192.7695135637611
 20
263.8527929473415
 30
0.0
 10
192.7079271375358
 20
263.9226151290579
 30
0.0
 10
192.64143216935
 20
264.0073912938946
 30
0.0
 10
192.5633580786295
 20
264.116213814
 30
0.0
 10
192.4686176005302
 20
264.2589628570317
 30
0.0
 10
192.350764290867
 20
264.4497223362998
 30
0.0
 10
192.2127713746078
 20
264.6873781220444
 30
0.0
 10
192.1166634972441
 20
264.8646660147398
 30
0.0
 10
192.0656854249347
 20
264.958704041231
 30
0.0
 11
193.0029437251524
 21
263.9253160179366
 31
0.0
 11
193.0000481159353
 21
263.8637905027055
 31
0.0
 11
192.9915836073296
 21
263.8162213363653
 31
0.0
 11
192.9741567128022
 21
263.7760973004303
 31
0.0
 11
192.9492938479597
 21
263.7546148162978
 31
0.0
 11
192.921448958331
 21
263.7505356068293
 31
0.0
 11
192.883642309203
 21
263.7621440340751
 31
0.0
 11
192.8322053263586
 21
263.7960700809363
 31
0.0
 11
192.772535006942
 21
263.8514250311602
 31
0.0
 11
192.7122093748306
 21
263.9189654579836
 31
0.0
 11
192.6457376728038
 21
264.0030438282488
 31
0.0
 11
192.5724091142154
 21
264.1047086083458
 31
0.0
 11
192.4785400092508
 21
264.2454565469411
 31
0.0
 11
192.3628534847835
 21
264.4318122584164
 31
0.0
 11
192.2200730324179
 21
264.6773977873199
 31
0.0
 11
192.0656854249347
 21
264.958704041231
 31
0.0
  0
SPLINE
  5
232
330
1F
100
AcDbEntity
  8
0
  6
Continuous
 62
     7
100
AcDbSpline
210
0.0
220
0.0
230
1.0
 70
     8
 71
     3
 72
     9
 73
     5
 74
     3
 42
0.000000001
 43
0.0000000001
 44
0.00000001
 40
0.0
 40
0.0
 40
0.0
 40
0.0
 40
0.0182741763853368
 40
0.0365608400424325
 40
0.0365608400424325
 40
0.0365608400424325
 40
0.0365608400424325
 10
192.0981724607752
 20
227.6290019157975
 30
0.0
 10
192.0927868170953
 20
227.6261555451779
 30
0.0
 10
192.0820118403391
 20
227.6204608766732
 30
0.0
 10
192.0711288054777
 20
227.6149755387621
 30
0.0
 10
192.0656854249494
 20
227.6122319419575
 30
0.0
 11
192.0981724607752
 21
227.6290019157975
 31
0.0
 11
192.081988529019
 21
227.6205151096947
 31
0.0
 11
192.0656854249494
 21
227.6122319419575
 31
0.0
  0
SPLINE
  5
233
330
1F
100
AcDbEntity
  8
0
  6
Continuous
 62
     7
100
AcDbSpline
210
0.0
220
0.0
230
1.0
 70
     8
 71
     3
 72
    11
 73
     7
 74
     5
 42
0.000000001
 43
0.0000000001
 44
0.00000001
 40
0.0
 40
0.0
 40
0.0
 40
0.0
 40
0.509691067709205
 40
0.9525767530679126
 40
1.336558069867654
 40
1.68452680600216
 40
1.68452680600216
 40
1.68452680600216
 40
1.68452680600216
 10
193.974873734153
 20
222.7430262039651
 30
0.0
 10
194.1242328633693
 20
222.825421059285
 30
0.0
 10
194.4033745622997
 20
222.9794112595162
 30
0.0
 10
194.7322690601055
 20
223.2837120484616
 30
0.0
 10
194.9560649914674
 20
223.6187652847904
 30
0.0
 10
194.9858433758772
 20
223.8639177123733
 30
0.0
 10
195.0000000000001
 20
223.9804630710416
 30
0.0
 11
193.974873734153
 21
222.7430262039651
 31
0.0
 11
194.410143505029
 21
223.0082152093716
 31
0.0
 11
194.7335783637896
 21
223.3107670644027
 31
0.0
 11
194.9327483185939
 21
223.6390550237066
 31
0.0
 11
195.0000000000001
 21
223.9804630710416
 31
0.0
  0
SPLINE
  5
234
330
1F
100
AcDbEntity
  8
0
  6
Continuous
 62
     7
100
AcDbSpline
210
0.0
220
0.0
230
1.0
 70
     8
 71
     3
 72
     9
 73
     5
 74
     3
 42
0.000000001
 43
0.0000000001
 44
0.00000001
 40
0.0
 40
0.0
 40
0.0
 40
0.0
 40
0.0000352601912187
 40
0.0000705203909764
 40
0.0000705203909764
 40
0.0000705203909764
 40
0.0000705203909764
 10
193.9748737341498
 20
226.2071278183415
 30
0.0
 10
193.9748632215032
 20
226.2071225622399
 30
0.0
 10
193.9748421962455
 20
226.2071120499592
 30
0.0
 10
193.9748211710638
 20
226.2071015375266
 30
0.0
 10
193.9748106584907
 20
226.2070962812717
 30
0.0
 11
193.9748737341498
 21
226.2071278183415
 31
0.0
 11
193.9748421962481
 21
226.2071120499605
 31
0.0
 11
193.9748106584907
 21
226.2070962812717
 31
0.0
  0
SPLINE
  5
235
330
1F
100
AcDbEntity
  8
0
  6
Continuous
 62
     7
100
AcDbSpline
210
0.0
220
0.0
230
1.0
 70
     8
 71
     3
 72
    15
 73
    11
 74
     9
 42
0.000000001
 43
0.0000000001
 44
0.00000001
 40
0.0
 40
0.0
 40
0.0
 40
0.0
 40
0.1384009775859029
 40
0.2830487784596012
 40
0.4372034813125348
 40
0.5815206053799036
 40
0.7479679664306922
 40
0.9126939191458612
 40
1.100801848977025
 40
1.292753138098634
 40
1.292753138098634
 40
1.292753138098634
 40
1.292753138098634
 10
195.0000000000001
 20
227.4959166075141
 30
0.0
 10
194.9978668255541
 20
227.5421015242366
 30
0.0
 10
194.9935041800424
 20
227.6365559444714
 30
0.0
 10
194.9566831813575
 20
227.7786014641288
 30
0.0
 10
194.897813843952
 20
227.9146305138773
 30
0.0
 10
194.8154611582326
 20
228.0464788573813
 30
0.0
 10
194.7145371769417
 20
228.1692534302109
 30
0.0
 10
194.5898872934272
 20
228.2897190310093
 30
0.0
 10
194.4479617450894
 20
228.4035465739089
 30
0.0
 10
194.3417811691255
 20
228.4727507504744
 30
0.0
 10
194.2881540002728
 20
228.5077027475982
 30
0.0
 11
195.0000000000001
 21
227.4959166075141
 31
0.0
 11
194.9889441252109
 21
227.6338752937201
 31
0.0
 11
194.9540784596726
 21
227.7742582432224
 31
0.0
 11
194.892981326363
 21
227.9157884993662
 31
0.0
 11
194.8170274864885
 21
228.0385013632036
 31
0.0
 11
194.7118469389484
 21
228.1675043741822
 31
0.0
 11
194.5939254715701
 21
228.282522491275
 31
0.0
 11
194.4472068547358
 21
228.4002435202684
 31
0.0
 11
194.2881540002728
 21
228.5077027475982
 31
0.0
  0
SPLINE
  5
236
330
1F
100
AcDbEntity
  8
0
  6
Continuous
 62
     7
100
AcDbSpline
210
0.0
220
0.0
230
1.0
 70
     8
 71
     3
 72
    15
 73
    11
 74
     9
 42
0.000000001
 43
0.0000000001
 44
0.00000001
 40
0.0
 40
0.0
 40
0.0
 40
0.0
 40
0.5732937969804268
 40
1.199634779733278
 40
1.863719950242956
 40
2.547363500756121
 40
3.231007051269343
 40
3.895092221779078
 40
4.521433204531881
 40
5.094727001512244
 40
5.094727001512244
 40
5.094727001512244
 40
5.094727001512244
 10
174.8829906421162
 20
215.6719583920997
 30
0.0
 10
175.0580329458558
 20
215.5945747267145
 30
0.0
 10
175.4243143182362
 20
215.4326470572752
 30
0.0
 10
176.0290802334211
 20
215.2798279683484
 30
0.0
 10
176.6803025194357
 20
215.1808378061767
 30
0.0
 10
177.3578643762691
 20
215.148518382362
 30
0.0
 10
178.0354262331027
 20
215.1808378061768
 30
0.0
 10
178.6866485191172
 20
215.2798279683483
 30
0.0
 10
179.2914144343021
 20
215.4326470572753
 30
0.0
 10
179.6576958066824
 20
215.5945747267145
 30
0.0
 10
179.832738110422
 20
215.6719583920997
 30
0.0
 11
174.8829906421162
 21
215.6719583920997
 31
0.0
 11
175.4133686529292
 21
215.4543235066616
 31
0.0
 11
176.0184723629914
 21
215.2926060772814
 31
0.0
 11
176.6750482815991
 21
215.1930210998792
 31
0.0
 11
177.3578643762691
 21
215.1593952591761
 31
0.0
 11
178.0406804709392
 21
215.1930210998792
 31
0.0
 11
178.697256389547
 21
215.2926060772814
 31
0.0
 11
179.302360099609
 21
215.4543235066617
 31
0.0
 11
179.832738110422
 21
215.6719583920997
 31
0.0
  0
SPLINE
  5
237
330
1F
100
AcDbEntity
  8
0
  6
Continuous
 62
     7
100
AcDbSpline
210
0.0
220
0.0
230
1.0
 70
     8
 71
     3
 72
    29
 73
    25
 74
    23
 42
0.000000001
 43
0.0000000001
 44
0.00000001
 40
0.0
 40
0.0
 40
0.0
 40
0.0
 40
0.6631913096159314
 40
1.18763538904834
 40
1.481236497864207
 40
1.785698632512347
 40
2.111129506587135
 40
2.382003057316038
 40
2.765300774013778
 40
3.108304701759677
 40
3.39555029316646
 40
3.669970696916145
 40
3.944293273902448
 40
4.231474537643128
 40
4.409051424586695
 40
4.596601189064412
 40
4.781193199284186
 40
4.960642935495684
 40
5.247306332971002
 40
5.557822795958585
 40
5.860361522755998
 40
6.152178608937351
 40
6.766590317342867
 40
7.339539568047762
 40
7.339539568047762
 40
7.339539568047762
 40
7.339539568047762
 10
179.6206060716982
 20
258.7361643542307
 30
0.0
 10
179.5441337497586
 20
258.5286448495923
 30
0.0
 10
179.4071879821368
 20
258.1570213055728
 30
0.0
 10
179.1953657091854
 20
257.7102859818634
 30
0.0
 10
179.0146520921676
 20
257.3825182096057
 30
0.0
 10
178.8507995933819
 20
257.1216844932686
 30
0.0
 10
178.6731211739435
 20
256.8791738534274
 30
0.0
 10
178.4581037347234
 20
256.6330066895545
 30
0.0
 10
178.2109040246129
 20
256.4086368557115
 30
0.0
 10
177.9223105728113
 20
256.2286532550147
 30
0.0
 10
177.6365906651918
 20
256.1252213631211
 30
0.0
 10
177.3573230880457
 20
256.0917504220126
 30
0.0
 10
177.078143792525
 20
256.1254679359727
 30
0.0
 10
176.8446996217436
 20
256.2101782866381
 30
0.0
 10
176.6539171699565
 20
256.3151978344464
 30
0.0
 10
176.5032352531325
 20
256.4200343280031
 30
0.0
 10
176.3622758221692
 20
256.5384041097764
 30
0.0
 10
176.2070328719938
 20
256.6901159634726
 30
0.0
 10
176.0372225705366
 20
256.8860336115767
 30
0.0
 10
175.8604441523952
 20
257.1286637696709
 30
0.0
 10
175.7000448665328
 20
257.3843466863605
 30
0.0
 10
175.5055072503733
 20
257.7373277670492
 30
0.0
 10
175.2969599627251
 20
258.1850438551911
 30
0.0
 10
175.1608170719551
 20
258.5567845705268
 30
0.0
 10
175.0951226764673
 20
258.736164366776
 30
0.0
 11
179.6206060716982
 21
258.7361643542307
 31
0.0
 11
179.380933019077
 21
258.1177958973208
 31
0.0
 11
179.1563066453022
 21
257.6438923358907
 31
0.0
 11
179.0140316787184
 21
257.387066626101
 31
0.0
 11
178.8516023828073
 21
257.1295517420491
 31
0.0
 11
178.6584093371118
 21
256.8676706598929
 31
0.0
 11
178.4795942738502
 21
256.664206525805
 31
0.0
 11
178.1934639511971
 21
256.409164218323
 31
0.0
 11
177.9006301228434
 21
256.2305583843658
 31
0.0
 11
177.6298622482775
 21
256.1346689256336
 31
0.0
 11
177.3573013737851
 21
256.1027764798553
 31
0.0
 11
177.0848666498087
 21
256.1349043155014
 31
0.0
 11
176.8142299215832
 21
256.2309711671625
 31
0.0
 11
176.6584200852747
 21
256.3161582895768
 31
0.0
 11
176.5041785138615
 21
256.4228562368134
 31
0.0
 11
176.3625504626301
 21
256.541244181576
 31
0.0
 11
176.2339881619075
 21
256.6664397995754
 31
0.0
 11
176.0454885670761
 21
256.8824115719163
 31
0.0
 11
175.8618995790827
 21
257.1328423159093
 31
0.0
 11
175.7006580331321
 21
257.3888322479501
 31
0.0
 11
175.5592999375409
 21
257.6441263936234
 31
0.0
 11
175.2994849516567
 21
258.2009009635772
 31
0.0
 11
175.0951226764673
 21
258.736164366776
 31
0.0
  0
SPLINE
  5
238
330
1F
100
AcDbEntity
  8
0
  6
Continuous
 62
     7
100
AcDbSpline
210
0.0
220
0.0
230
1.0
 70
     8
 71
     3
 72
    11
 73
     7
 74
     5
 42
0.000000001
 43
0.0000000001
 44
0.00000001
 40
0.0
 40
0.0
 40
0.0
 40
0.0
 40
1.365731114195927
 40
2.756361106184484
 40
4.146991098172983
 40
5.512722212368972
 40
5.512722212368972
 40
5.512722212368972
 40
5.512722212368972
 10
174.6120247417377
 20
271.5671843654984
 30
0.0
 10
175.0634129536664
 20
271.6283772906116
 30
0.0
 10
175.9744187149938
 20
271.7518787445615
 30
0.0
 10
177.3578643762692
 20
271.7967953446066
 30
0.0
 10
178.7413100375445
 20
271.7518787445616
 30
0.0
 10
179.6523157988718
 20
271.6283772906117
 30
0.0
 10
180.1037040108006
 20
271.5671843654984
 30
0.0
 11
174.6120247417377
 21
271.5671843654984
 31
0.0
 11
175.9682817020334
 21
271.7277724563083
 31
0.0
 11
177.3578643762692
 21
271.7817332602635
 31
0.0
 11
178.7474470505049
 21
271.7277724563083
 31
0.0
 11
180.1037040108006
 21
271.5671843654984
 31
0.0
  0
SPLINE
  5
239
330
1F
100
AcDbEntity
  8
0
  6
Continuous
 62
     7
100
AcDbSpline
210
0.0
220
0.0
230
1.0
 70
     8
 71
     3
 72
    11
 73
     7
 74
     5
 42
0.000000001
 43
0.0000000001
 44
0.00000001
 40
0.0
 40
0.0
 40
0.0
 40
0.0
 40
0.3479687361344895
 40
0.7319500529342451
 40
1.174835738292912
 40
1.684526806002181
 40
1.684526806002181
 40
1.684526806002181
 40
1.684526806002181
 10
159.7157287525382
 20
223.9804630710416
 30
0.0
 10
159.7298853766611
 20
223.8639177123733
 30
0.0
 10
159.7596637610708
 20
223.6187652847903
 30
0.0
 10
159.9834596924328
 20
223.2837120484617
 30
0.0
 10
160.3123541902386
 20
222.9794112595162
 30
0.0
 10
160.591495889169
 20
222.825421059285
 30
0.0
 10
160.7408550183853
 20
222.7430262039651
 30
0.0
 11
159.7157287525382
 21
223.9804630710416
 31
0.0
 11
159.7829804339443
 21
223.6390550237066
 31
0.0
 11
159.9821503887487
 21
223.3107670644027
 31
0.0
 11
160.3055852475092
 21
223.0082152093717
 31
0.0
 11
160.7408550183853
 21
222.7430262039651
 31
0.0
  0
SPLINE
  5
23A
330
1F
100
AcDbEntity
  8
0
  6
Continuous
 62
     7
100
AcDbSpline
210
0.0
220
0.0
230
1.0
 70
     8
 71
     3
 72
    23
 73
    19
 74
    17
 42
0.000000001
 43
0.0000000001
 44
0.00000001
 40
0.0
 40
0.0
 40
0.0
 40
0.0
 40
2.424171176068716
 40
4.569980979508472
 40
7.076948677054032
 40
9.156146304251045
 40
10.47669668316679
 40
11.62831749841485
 40
12.54765028443562
 40
13.4168765389528
 40
14.28537197130221
 40
15.20467917355483
 40
16.36440402780319
 40
17.6955221057921
 40
19.76627304321261
 40
22.25956359967796
 40
24.40012965811984
 40
26.81744156988863
 40
26.81744156988863
 40
26.81744156988863
 40
26.81744156988863
 10
91.46875473980708
 20
174.4128563260765
 30
0.0
 10
91.09084359220213
 20
175.1272333716997
 30
0.0
 10
90.3784158565492
 20
176.4739573692524
 30
0.0
 10
89.16512547834049
 20
178.4983160626711
 30
0.0
 10
87.89130246873053
 20
180.3488098750839
 30
0.0
 10
86.59951592434214
 20
181.8434084673355
 30
0.0
 10
85.44828647442094
 20
182.8389064352386
 30
0.0
 10
84.47756414583904
 20
183.4317775994012
 30
0.0
 10
83.54845098621766
 20
183.7652929608765
 30
0.0
 10
82.66071983615286
 20
183.8708733046237
 30
0.0
 10
81.77351171086636
 20
183.7614311924666
 30
0.0
 10
80.84332131809354
 20
183.4238222362122
 30
0.0
 10
79.86921224449581
 20
182.8244751145561
 30
0.0
 10
78.71856748239682
 20
181.8231213640881
 30
0.0
 10
77.43203719058859
 20
180.3293361899481
 30
0.0
 10
76.16451981817062
 20
178.4856300221327
 30
0.0
 10
74.95608501960949
 20
176.4683944418476
 30
0.0
 10
74.24557837163287
 20
175.1252206940196
 30
0.0
 10
73.86875473362994
 20
174.4128563141284
 30
0.0
 11
91.46875473980708
 21
174.4128563260765
 31
0.0
 11
90.31502576251773
 21
176.5448777529763
 31
0.0
 11
89.20945056615591
 21
178.3839544779913
 31
0.0
 11
87.76996302862139
 21
180.4364560417467
 31
0.0
 11
86.39005796602021
 21
181.9917453376485
 31
0.0
 11
85.3820814121838
 21
182.8448787220701
 31
0.0
 11
84.3920048463849
 21
183.4330784308074
 31
0.0
 11
83.52406497757529
 21
183.736151287819
 31
0.0
 11
82.66055985490004
 21
183.8357162702396
 31
0.0
 11
81.79821034838153
 21
183.7325773072577
 31
0.0
 11
80.93136101209768
 21
183.4264760799347
 31
0.0
 11
79.93620744563924
 21
182.8309669547899
 31
0.0
 11
78.92285190936639
 21
181.9678412999088
 31
0.0
 11
77.55166846730347
 21
180.4161114858612
 31
0.0
 11
76.12154285134267
 21
178.373750468585
 31
0.0
 11
75.01909140376843
 21
176.5389142745211
 31
0.0
 11
73.86875473362994
 21
174.4128563141284
 31
0.0
  0
SPLINE
  5
23B
330
1F
100
AcDbEntity
  8
0
  6
Continuous
 62
     7
100
AcDbSpline
210
0.0
220
0.0
230
1.0
 70
     8
 71
     3
 72
    25
 73
    21
 74
    19
 42
0.000000001
 43
0.0000000001
 44
0.00000001
 40
0.0
 40
0.0
 40
0.0
 40
0.0
 40
0.5207757923972809
 40
1.042775375028364
 40
1.302583308907165
 40
1.538097939253784
 40
1.771853275100305
 40
2.002453511532744
 40
2.258793552102611
 40
2.513215518884515
 40
2.688203959711529
 40
2.890034806035362
 40
3.110795271121985
 40
3.327405434755129
 40
3.664526262569265
 40
3.993870704544429
 40
4.53513400250233
 40
5.171014599871763
 40
5.696222527471192
 40
6.372013276884262
 40
6.372013276884262
 40
6.372013276884262
 40
6.372013276884262
 10
94.66875473980707
 20
174.4128563260797
 30
0.0
 10
94.6666039928047
 20
174.239248650136
 30
0.0
 10
94.66229743526947
 20
173.8916253314089
 30
0.0
 10
94.62636904835152
 20
173.458385773104
 30
0.0
 10
94.57709484738069
 20
173.1227606556577
 30
0.0
 10
94.52859775716533
 20
172.8844776564807
 30
0.0
 10
94.46685154093942
 20
172.659273027968
 30
0.0
 10
94.38244266276959
 20
172.4338825729369
 30
0.0
 10
94.26489871718061
 20
172.2152819276473
 30
0.0
 10
94.11070288502938
 20
172.0413178397335
 30
0.0
 10
93.92546191957454
 20
171.9348641330866
 30
0.0
 10
93.72440935789375
 20
171.9006717104122
 30
0.0
 10
93.51158383120332
 20
171.9400459337903
 30
0.0
 10
93.27471565463856
 20
172.046041466649
 30
0.0
 10
93.03272811730295
 20
172.2168374593076
 30
0.0
 10
92.73736566377748
 20
172.4911814420641
 30
0.0
 10
92.4104427030239
 20
172.8740188888262
 30
0.0
 10
92.08425739877191
 20
173.3389674877511
 30
0.0
 10
91.76305200001164
 20
173.8606370975708
 30
0.0
 10
91.57472473105594
 20
174.2140142797487
 30
0.0
 10
91.46875473980708
 20
174.4128563260765
 30
0.0
 11
94.66875473980707
 21
174.4128563260797
 31
0.0
 11
94.65620291234123
 21
173.8922318109433
 31
0.0
 11
94.61186934829243
 21
173.3721182656846
 31
0.0
 11
94.57345391117568
 21
173.1151660973348
 31
0.0
 11
94.52591501338424
 21
172.8844992501045
 31
0.0
 11
94.46317292267668
 21
172.6593215709013
 31
0.0
 11
94.38093298311503
 21
172.4438846624387
 31
0.0
 11
94.25606428174316
 21
172.2200141104307
 31
0.0
 11
94.08250103645804
 21
172.0339863237624
 31
0.0
 11
93.92984555388213
 21
171.9484453494854
 31
0.0
 11
93.73111449256356
 21
171.9132082083654
 31
0.0
 11
93.51322369177974
 21
171.9486875293788
 31
0.0
 11
93.31426758014436
 21
172.0343404855236
 31
0.0
 11
93.03562224014564
 21
172.2240961904413
 31
0.0
 11
92.79262505700126
 21
172.4464025799956
 31
0.0
 11
92.43729744113104
 21
172.8547017889439
 31
0.0
 11
92.06888254849804
 21
173.3729822170583
 31
0.0
 11
91.79353065493525
 21
173.8202234303074
 31
0.0
 11
91.46875473980708
 21
174.4128563260765
 31
0.0
  0
SPLINE
  5
23C
330
1F
100
AcDbEntity
  8
0
  6
Continuous
 62
     7
100
AcDbSpline
210
0.0
220
0.0
230
1.0
 70
     8
 71
     3
 72
    27
 73
    23
 74
    21
 42
0.000000001
 43
0.0000000001
 44
0.00000001
 40
0.0
 40
0.0
 40
0.0
 40
0.0
 40
0.2898835720073404
 40
0.5877420162810887
 40
0.8917743817436405
 40
1.200150645254388
 40
1.542188279664193
 40
1.883739793583059
 40
2.217614803761835
 40
2.411454578027336
 40
2.609283220197172
 40
2.674619135886759
 40
2.747033361627387
 40
2.82404738085056
 40
2.903194894207917
 40
2.96739560567524
 40
3.019212216425842
 40
3.059406544207556
 40
3.088726772999723
 40
3.126007441900012
 40
3.149243730337747
 40
3.159296841071962
 40
3.159296841071962
 40
3.159296841071962
 40
3.159296841071962
 10
91.51503300107646
 20
131.2891995411144
 30
0.0
 10
91.61164372904607
 20
131.2910986219987
 30
0.0
 10
91.80752300418263
 20
131.2949490428883
 30
0.0
 10
92.10459758259255
 20
131.3056545204116
 30
0.0
 10
92.40776495483078
 20
131.318053383605
 30
0.0
 10
92.72562793352802
 20
131.3315425015446
 30
0.0
 10
93.05603945025152
 20
131.3442969892248
 30
0.0
 10
93.3950611198925
 20
131.3540634263593
 30
0.0
 10
93.68481727134045
 20
131.3576868154709
 30
0.0
 10
93.92666788982197
 20
131.3559214006515
 30
0.0
 10
94.07896484750795
 20
131.3518805373831
 30
0.0
 10
94.19071637079062
 20
131.3469334380695
 30
0.0
 10
94.26219856278014
 20
131.3430089878049
 30
0.0
 10
94.33821609129035
 20
131.3378190549368
 30
0.0
 10
94.4114105812023
 20
131.3315878957315
 30
0.0
 10
94.47611285618805
 20
131.3247968151807
 30
0.0
 10
94.52778692418525
 20
131.3183214642168
 30
0.0
 10
94.56778741147443
 20
131.3123894302661
 30
0.0
 10
94.6029251409096
 20
131.306519227937
 30
0.0
 10
94.63213980912693
 20
131.3002670862226
 30
0.0
 10
94.65530481557406
 20
131.295321279411
 30
0.0
 10
94.66537805226938
 20
131.2906194478135
 30
0.0
 10
94.66842008520393
 20
131.2891995411144
 30
0.0
 11
91.51503300107646
 21
131.2891995411144
 31
0.0
 11
91.80484420303776
 21
131.2956765006108
 31
0.0
 11
92.10252992542725
 21
131.3058186596439
 31
0.0
 11
92.40631529079536
 21
131.3180714550244
 31
0.0
 11
92.71442542169257
 21
131.3308803235633
 31
0.0
 11
93.0562210199143
 21
131.3437454846403
 31
0.0
 11
93.39764167613656
 21
131.3531991688664
 31
0.0
 11
93.7314964396079
 21
131.3568760295429
 31
0.0
 11
93.92532993839963
 21
131.3553162790946
 31
0.0
 11
94.123082536732
 21
131.3498316188546
 31
0.0
 11
94.18835391538745
 21
131.3469283440027
 31
0.0
 11
94.26065808676422
 21
131.3429374935414
 31
0.0
 11
94.33749078638014
 21
131.3376558819139
 31
0.0
 11
94.41634774975296
 21
131.3308803235634
 31
0.0
 11
94.48019253551392
 21
131.3241294215927
 31
0.0
 11
94.53159898023142
 21
131.3176226109214
 31
0.0
 11
94.57135703158568
 21
131.3117165688405
 31
0.0
 11
94.6002566372569
 21
131.3067679726407
 31
0.0
 11
94.63677724772526
 21
131.2992784284025
 31
0.0
 11
94.65921608697512
 21
131.2932432327392
 31
0.0
 11
94.66842008520393
 21
131.2891995411144
 31
0.0
  0
SPLINE
  5
23D
330
1F
100
AcDbEntity
  8
0
  6
Continuous
 62
     7
100
AcDbSpline
210
0.0
220
0.0
230
1.0
 70
     8
 71
     3
 72
    72
 73
    68
 74
    66
 42
0.000000001
 43
0.0000000001
 44
0.00000001
 40
0.0
 40
0.0
 40
0.0
 40
0.0
 40
0.0005340628378821
 40
0.0010681258725534
 40
0.0024021299071958
 40
0.0042747290959763
 40
0.008167668417342
 40
0.0117867648281069
 40
0.0148568182180768
 40
0.0171025167942298
 40
0.0259501118430757
 40
0.034637083795931
 40
0.0429519615626298
 40
0.050683008241916
 40
0.0576183006143402
 40
0.0635457812112139
 40
0.0682532939444411
 40
0.0840060844993857
 40
0.0993406297461792
 40
0.1140637419928153
 40
0.1279819271867256
 40
0.1409014514455291
 40
0.1526283908311792
 40
0.1734550859499871
 40
0.1938560833028352
 40
0.213701272968705
 40
0.2328603295442767
 40
0.2512027470638313
 40
0.2685978672705191
 40
0.3033247278557457
 40
0.3379016342214247
 40
0.3721912916073434
 40
0.4060560463833692
 40
0.4393579393340664
 40
0.4719587495013147
 40
0.5037200305332535
 40
0.5345031410451776
 40
0.5641692701691383
 40
0.5925794592268456
 40
0.6652729327179251
 40
0.7382664357223162
 40
0.8112996266625052
 40
0.884111257247693
 40
0.9564393139046024
 40
1.028021133433409
 40
1.138730396672703
 40
1.250611378269391
 40
1.363467344696497
 40
1.477100409730981
 40
1.591311716092177
 40
1.705901594118861
 40
1.820669702349507
 40
1.93541515407808
 40
2.049936633376687
 40
2.164032503670159
 40
2.279597080988996
 40
2.394684045251224
 40
2.509222103042778
 40
2.623140051198375
 40
2.736366885202996
 40
2.848831911837386
 40
2.96046486728427
 40
3.071196042029399
 40
3.180956414030286
 40
3.289677791797672
 40
3.397292969265126
 40
3.503735895023526
 40
3.503735895023526
 40
3.503735895023526
 40
3.503735895023526
 10
69.16875473980707
 20
129.788864885634
 30
0.0
 10
69.16892856124352
 20
129.7889033253291
 30
0.0
 10
69.16927620106142
 20
129.7889802188764
 30
0.0
 10
69.17005863797421
 20
129.7891503108384
 30
0.0
 10
69.17127815671945
 20
129.7894101551816
 30
0.0
 10
69.17359513128812
 20
129.7898918826493
 30
0.0
 10
69.17666203932768
 20
129.7905083243035
 30
0.0
 10
69.18012454149732
 20
129.791181727668
 30
0.0
 10
69.18305063747866
 20
129.7917368692283
 30
0.0
 10
69.18769192430774
 20
129.7926014060826
 30
0.0
 10
69.19418126943975
 20
129.7937688639162
 30
0.0
 10
69.20267349530472
 20
129.7952272914382
 30
0.0
 10
69.21080777710367
 20
129.7965699512901
 30
0.0
 10
69.2183725505502
 20
129.7977768000069
 30
0.0
 10
69.22515622894261
 20
129.7988278907577
 30
0.0
 10
69.23094722175142
 20
129.7997032169878
 30
0.0
 10
69.23964814365357
 20
129.8009925613568
 30
0.0
 10
69.25145985908593
 20
129.8026807433
 30
0.0
 10
69.26659136139313
 20
129.8047345839902
 30
0.0
 10
69.28112861879026
 20
129.8066175294584
 30
0.0
 10
69.29487680553484
 20
129.8083238010099
 30
0.0
 10
69.3076410671618
 20
129.8098478409661
 30
0.0
 10
69.32269899541436
 20
129.8115845554762
 30
0.0
 10
69.34024430935858
 20
129.81351930483
 30
0.0
 10
69.3604920255886
 20
129.8156328472361
 30
0.0
 10
69.38019739405652
 20
129.817585021954
 30
0.0
 10
69.39922865498787
 20
129.8193789027643
 30
0.0
 10
69.41745405171105
 20
129.821017592611
 30
0.0
 10
69.44085587023639
 20
129.8230299063088
 30
0.0
 10
69.46966243074347
 20
129.8253505130787
 30
0.0
 10
69.50409973162978
 20
129.8278974914375
 30
0.0
 10
69.53826497512424
 20
129.8302180921257
 30
0.0
 10
69.57201827552063
 20
129.8323238932396
 30
0.0
 10
69.60521975796817
 20
129.8342264677374
 30
0.0
 10
69.63772953713108
 20
129.8359374009834
 30
0.0
 10
69.66940772498086
 20
129.8374682829657
 30
0.0
 10
69.70011442782929
 20
129.8388307103811
 30
0.0
 10
69.72970975567861
 20
129.8400362752172
 30
0.0
 10
69.77326927518828
 20
129.8416657897068
 30
0.0
 10
69.83127281374783
 20
129.8435150368858
 30
0.0
 10
69.90415779858202
 20
129.8453170792537
 30
0.0
 10
69.97709223908981
 20
129.8466476854398
 30
0.0
 10
70.04981134677574
 20
129.8475470222015
 30
0.0
 10
70.12205037574311
 20
129.8480553390987
 30
0.0
 10
70.20692349498486
 20
129.8482422049809
 30
0.0
 10
70.30498100129715
 20
129.8479086409039
 30
0.0
 10
70.41679204512715
 20
129.846858621175
 30
0.0
 10
70.52957037789228
 20
129.8452042583785
 30
0.0
 10
70.64311640168378
 20
129.8430151131728
 30
0.0
 10
70.75723053961023
 20
129.8403606937949
 30
0.0
 10
70.87171319276064
 20
129.8373105384254
 30
0.0
 10
70.98636475548226
 20
129.8339341886087
 30
0.0
 10
71.10098561436995
 20
129.8303011951845
 30
0.0
 10
71.215376150891
 20
129.8264811051264
 30
0.0
 10
71.33003505048752
 20
129.8225193642628
 30
0.0
 10
71.44487983443338
 20
129.8184798168277
 30
0.0
 10
71.55987158948389
 20
129.8144256643394
 30
0.0
 10
71.67431670130031
 20
129.8104445999194
 30
0.0
 10
71.78814618386092
 20
129.8066023214752
 30
0.0
 10
71.90129105406896
 20
129.8029644988841
 30
0.0
 10
72.01368233220948
 20
129.7995969263528
 30
0.0
 10
72.12525104279446
 20
129.7965649217243
 30
0.0
 10
72.23592821611106
 20
129.7939355522411
 30
0.0
 10
72.34564488720683
 20
129.7917694272747
 30
0.0
 10
72.45433210504271
 20
129.7901509193342
 30
0.0
 10
72.56192090515364
 20
129.7890770027875
 30
0.0
 10
72.63327371196195
 20
129.7889353278959
 30
0.0
 10
72.66875473981577
 20
129.788864885634
 30
0.0
 11
69.16875473980707
 21
129.788864885634
 31
0.0
 11
69.16927627250064
 21
129.7889798939202
 31
0.0
 11
69.16979812266351
 21
129.7890934529967
 31
0.0
 11
69.17110275617807
 21
129.7893718377783
 31
0.0
 11
69.17293605537736
 21
129.7897534681177
 31
0.0
 11
69.17675234671343
 21
129.7905221662876
 31
0.0
 11
69.18030475762518
 21
129.7912137119964
 31
0.0
 11
69.18332097228644
 21
129.7917861426814
 31
0.0
 11
69.18552867487091
 21
129.7921974957799
 31
0.0
 11
69.19423599757954
 21
129.7937667214261
 31
0.0
 11
69.20279733228419
 21
129.7952388048377
 31
0.0
 11
69.21100102868395
 21
129.7965940013134
 31
0.0
 11
69.21863543647788
 21
129.797812566152
 31
0.0
 11
69.22548890536507
 21
129.7988747546524
 31
0.0
 11
69.23134978504454
 21
129.7997608221131
 31
0.0
 11
69.23600642521541
 21
129.8004510238331
 31
0.0
 11
69.25160045459711
 21
129.8026818661691
 31
0.0
 11
69.26679541205046
 21
129.8047462173014
 31
0.0
 11
69.28139639700447
 21
129.8066386422892
 31
0.0
 11
69.29520850888807
 21
129.808353706192
 31
0.0
 11
69.30803684713018
 21
129.8098859740691
 31
0.0
 11
69.31968651115983
 21
129.8112300109798
 31
0.0
 11
69.34038752801342
 21
129.8135145525995
 31
0.0
 11
69.36067812973741
 21
129.8156340276125
 31
0.0
 11
69.38042653381463
 21
129.8175915998289
 31
0.0
 11
69.3995009577279
 21
129.8193904330585
 31
0.0
 11
69.41776961896002
 21
129.8210336911116
 31
0.0
 11
69.43510073499385
 21
129.8225245377981
 31
0.0
 11
69.46971517314932
 21
129.8253165830363
 31
0.0
 11
69.50419767852539
 21
129.8278698703699
 31
0.0
 11
69.53840834172789
 21
129.830196053155
 31
0.0
 11
69.57220725336279
 21
129.8323067847475
 31
0.0
 11
69.60545450403593
 21
129.8342137185035
 31
0.0
 11
69.63801018435326
 21
129.8359285077789
 31
0.0
 11
69.66973438492067
 21
129.8374628059297
 31
0.0
 11
69.70048719634406
 21
129.8388282663119
 31
0.0
 11
69.73012870922932
 21
129.8400365422813
 31
0.0
 11
69.75851901418235
 21
129.8410992871941
 31
0.0
 11
69.83117526132162
 21
129.8434254081171
 31
0.0
 11
69.90414625604573
 21
129.8452379777576
 31
0.0
 11
69.97716716336012
 21
129.846577407827
 31
0.0
 11
70.04997314827023
 21
129.8474841100368
 31
0.0
 11
70.1222993757815
 21
129.8479984960985
 31
0.0
 11
70.19388101089936
 21
129.8481609777234
 31
0.0
 11
70.30458968574956
 21
129.8478000364091
 31
0.0
 11
70.4164658674438
 21
129.8467636911504
 31
0.0
 11
70.52930988762465
 21
129.8451216598671
 31
0.0
 11
70.64292207793476
 21
129.842943660479
 31
0.0
 11
70.75710277001667
 21
129.8402994109059
 31
0.0
 11
70.87165229551304
 21
129.8372586290675
 31
0.0
 11
70.98637098606648
 21
129.8338910328836
 31
0.0
 11
71.10105917331953
 21
129.830266340274
 31
0.0
 11
71.21551718891484
 21
129.8264542691584
 31
0.0
 11
71.329545364495
 21
129.8225245374567
 31
0.0
 11
71.44503888628299
 21
129.8184726298748
 31
0.0
 11
71.56005476427228
 21
129.8144282322274
 31
0.0
 11
71.67452396030185
 21
129.8104571062575
 31
0.0
 11
71.78837743621072
 21
129.8066250137084
 31
0.0
 11
71.90154615383784
 21
129.802997716323
 31
0.0
 11
72.0139610750223
 21
129.7996409758445
 31
0.0
 11
72.12555316160302
 21
129.7966205540161
 31
0.0
 11
72.236253375419
 21
129.7940022125809
 31
0.0
 11
72.3459926783093
 21
129.791851713282
 31
0.0
 11
72.45470203211285
 21
129.7902348178624
 31
0.0
 11
72.56231239866868
 21
129.7892172880654
 31
0.0
 11
72.66875473981577
 21
129.788864885634
 31
0.0
  0
SPLINE
  5
23E
330
1F
100
AcDbEntity
  8
0
  6
Continuous
 62
     7
100
AcDbSpline
210
0.0
220
0.0
230
1.0
 70
     8
 71
     3
 72
    72
 73
    68
 74
    66
 42
0.000000001
 43
0.0000000001
 44
0.00000001
 40
0.0
 40
0.0
 40
0.0
 40
0.0
 40
0.1064429264695077
 40
0.2140581046526093
 40
0.3227794831446053
 40
0.4325398558834375
 40
0.5432710313842649
 40
0.6549039876088577
 40
0.767369015047356
 40
0.8805958498868324
 40
0.994513798912262
 40
1.109051857612962
 40
1.22413882282801
 40
1.339703401147642
 40
1.453799271949946
 40
1.568320751620234
 40
1.683066203598111
 40
1.797834311970401
 40
1.912424190045898
 40
2.026635496377812
 40
2.140268561319713
 40
2.25312452760577
 40
2.365005509027746
 40
2.47571477207345
 40
2.54729656536004
 40
2.619624594372972
 40
2.692436196323445
 40
2.765469358047967
 40
2.838462831664147
 40
2.911156276000919
 40
2.939566478679238
 40
2.96923262243457
 40
3.000015748439637
 40
3.031777045677567
 40
3.064377872615078
 40
3.097679782752033
 40
3.131544554982156
 40
3.165834229942587
 40
3.200411153855953
 40
3.235138031815617
 40
3.252533144120847
 40
3.270875552292283
 40
3.290034598335276
 40
3.30987977654589
 40
3.330280761782156
 40
3.351107444383798
 40
3.362834386061918
 40
3.375753911713354
 40
3.389672097601003
 40
3.404395210043389
 40
3.419729755188508
 40
3.435482545544508
 40
3.44019006273328
 40
3.44611754798922
 40
3.453052845209167
 40
3.460783896909552
 40
3.469098779856051
 40
3.477785757132717
 40
3.486633357634755
 40
3.488879058961395
 40
3.491949115892604
 40
3.495568216379448
 40
3.499461160055911
 40
3.501333761793758
 40
3.50266776760935
 40
3.503201831410834
 40
3.503735895015536
 40
3.503735895015536
 40
3.503735895015536
 40
3.503735895015536
 10
92.66875473980707
 20
129.788864885634
 30
0.0
 10
92.70423576789794
 20
129.7889353278968
 30
0.0
 10
92.77558857518184
 20
129.7890770027902
 30
0.0
 10
92.8831773760098
 20
129.7901509193504
 30
0.0
 10
92.99186459457154
 20
129.7917694273106
 30
0.0
 10
93.10158126640634
 20
129.7939355523029
 30
0.0
 10
93.21225844047956
 20
129.7965649218167
 30
0.0
 10
93.32382715184309
 20
129.7995969264793
 30
0.0
 10
93.4362184307884
 20
129.8029644990472
 30
0.0
 10
93.54936330183193
 20
129.8066023216762
 30
0.0
 10
93.66319278526304
 20
129.8104446001586
 30
0.0
 10
93.77763789798931
 20
129.8144256646157
 30
0.0
 10
93.89262965399347
 20
129.8184798171391
 30
0.0
 10
94.0074744387597
 20
129.8225193645998
 30
0.0
 10
94.12213333898328
 20
129.8264811054758
 30
0.0
 10
94.23652387588126
 20
129.8303011955312
 30
0.0
 10
94.35114473502368
 20
129.8339341889422
 30
0.0
 10
94.46579629789268
 20
129.8373105387358
 30
0.0
 10
94.58027895109768
 20
129.8403606940729
 30
0.0
 10
94.69439308900071
 20
129.8430151134099
 30
0.0
 10
94.80793911270554
 20
129.8452042585668
 30
0.0
 10
94.92071744533536
 20
129.8468586213073
 30
0.0
 10
95.03252848899616
 20
129.8479086409735
 30
0.0
 10
95.13058598643849
 20
129.8482422049604
 30
0.0
 10
95.21545908765346
 20
129.8480553391291
 30
0.0
 10
95.28769808911518
 20
129.8475470225724
 30
0.0
 10
95.3604171683086
 20
129.846647686482
 30
0.0
 10
95.43335157975072
 20
129.8453170813555
 30
0.0
 10
95.50623653535968
 20
129.8435150404933
 30
0.0
 10
95.5642400589795
 20
129.8416657946575
 30
0.0
 10
95.60779957821651
 20
129.840036280925
 30
0.0
 10
95.63739492065515
 20
129.8388307159769
 30
0.0
 10
95.66810163895276
 20
129.8374682883452
 30
0.0
 10
95.69977984296177
 20
129.8359374060272
 30
0.0
 10
95.73228963884407
 20
129.8342264723117
 30
0.0
 10
95.76549113842135
 20
129.8323238971961
 30
0.0
 10
95.79924445620802
 20
129.8302180953012
 30
0.0
 10
95.83340971720347
 20
129.8278974936545
 30
0.0
 10
95.86784703555159
 20
129.825350514145
 30
0.0
 10
95.89665360503915
 20
129.8230299066802
 30
0.0
 10
95.92005542360579
 20
129.8210175929777
 30
0.0
 10
95.93828081110846
 20
129.8193789039944
 30
0.0
 10
95.95731206164822
 20
129.8175850242468
 30
0.0
 10
95.97701741881767
 20
129.8156328507951
 30
0.0
 10
95.99726512310629
 20
129.813519309863
 30
0.0
 10
96.01481042967836
 20
129.8115845616007
 30
0.0
 10
96.02986835503845
 20
129.8098478477068
 30
0.0
 10
96.04263261814371
 20
129.8083238078202
 30
0.0
 10
96.05638080567732
 20
129.8066175364499
 30
0.0
 10
96.07091806337526
 20
129.8047345912605
 30
0.0
 10
96.0860495656962
 20
129.8026807509318
 30
0.0
 10
96.09786128254436
 20
129.8009925691067
 30
0.0
 10
96.10656220742233
 20
129.7997032245448
 30
0.0
 10
96.11235320485645
 20
129.798827897775
 30
0.0
 10
96.11913688806172
 20
129.7977768064593
 30
0.0
 10
96.12670166649214
 20
129.7965699571427
 30
0.0
 10
96.13483595342973
 20
129.7952272966465
 30
0.0
 10
96.14332818457144
 20
129.7937688684255
 30
0.0
 10
96.14981753416876
 20
129.7926014099449
 30
0.0
 10
96.1544588248662
 20
129.791736872479
 30
0.0
 10
96.15738492425461
 20
129.7911817303361
 30
0.0
 10
96.16084743035428
 20
129.7905083262746
 30
0.0
 10
96.16391434199203
 20
129.7898918839475
 30
0.0
 10
96.16623131940108
 20
129.7894101559193
 30
0.0
 10
96.16745083981037
 20
129.7891503112331
 30
0.0
 10
96.16823327780376
 20
129.788980219041
 30
0.0
 10
96.16858091812101
 20
129.7889033253839
 30
0.0
 10
96.16875473980707
 20
129.788864885634
 30
0.0
 11
92.66875473980707
 21
129.788864885634
 31
0.0
 11
92.77519708166525
 21
129.7892172880699
 31
0.0
 11
92.88280744893665
 21
129.7902348178796
 31
0.0
 11
92.99151680346459
 21
129.7918517133188
 31
0.0
 11
93.10125610709248
 21
129.7940022126432
 31
0.0
 11
93.21195632166365
 21
129.7966205541088
 31
0.0
 11
93.32354840902146
 21
129.799640975971
 31
0.0
 11
93.43596333100929
 21
129.8029977164858
 31
0.0
 11
93.54913204947049
 21
129.8066250139088
 31
0.0
 11
93.6629855262484
 21
129.8104571064958
 31
0.0
 11
93.7774547231864
 21
129.8144282325026
 31
0.0
 11
93.89247060212787
 21
129.8184726301848
 31
0.0
 11
94.00796412491616
 21
129.8225245377983
 31
0.0
 11
94.12199230100516
 21
129.8264542695083
 31
0.0
 11
94.23645031697247
 21
129.830266340621
 31
0.0
 11
94.35113850447537
 21
129.8338910332171
 31
0.0
 11
94.4658571951712
 21
129.8372586293775
 31
0.0
 11
94.58040672071726
 21
129.8402994111833
 31
0.0
 11
94.69458741277084
 21
129.8429436607153
 31
0.0
 11
94.80819960298929
 21
129.8451216600544
 31
0.0
 11
94.92104362302989
 21
129.8467636912815
 31
0.0
 11
95.03291980454999
 21
129.8478000364776
 31
0.0
 11
95.14362847920682
 21
129.8481609777234
 31
0.0
 11
95.21521008808257
 21
129.847998496171
 31
0.0
 11
95.28753628795164
 21
129.8474841104574
 31
0.0
 11
95.3603422442333
 21
129.846577408929
 31
0.0
 11
95.43336312234678
 21
129.8452379799323
 31
0.0
 11
95.50633408771142
 21
129.8434254118138
 31
0.0
 11
95.5789903057464
 21
129.8410992929199
 31
0.0
 11
95.6073806243287
 21
129.8400365479833
 31
0.0
 11
95.63702215185283
 21
129.8388282718998
 31
0.0
 11
95.6677749787749
 21
129.8374628112986
 31
0.0
 11
95.69949919555086
 21
129.835928512809
 31
0.0
 11
95.73205489263677
 21
129.8342137230603
 31
0.0
 11
95.76530216048872
 21
129.832306788682
 31
0.0
 11
95.79910108956261
 21
129.8301960563031
 31
0.0
 11
95.8333117703146
 21
129.8278698725531
 31
0.0
 11
95.86779429320062
 21
129.8253165840612
 31
0.0
 11
95.90240874867675
 21
129.8225245374567
 31
0.0
 11
95.91973985683816
 21
129.8210336914471
 31
0.0
 11
95.9380085087629
 21
129.8193904342664
 31
0.0
 11
95.95708292219801
 21
129.8175916021093
 31
0.0
 11
95.97683131489045
 21
129.8156340311702
 31
0.0
 11
95.99712190458722
 21
129.8135145576439
 31
0.0
 11
96.01782290903532
 21
129.8112300177247
 31
0.0
 11
96.02947257536724
 21
129.8098859807671
 31
0.0
 11
96.04230091502133
 21
129.8083537129691
 31
0.0
 11
96.05611302762773
 21
129.8066386492575
 31
0.0
 11
96.07071401281665
 21
129.8047462245592
 31
0.0
 11
96.08590897021818
 21
129.8026818738008
 31
0.0
 11
96.10150299946253
 21
129.8004510319094
 31
0.0
 11
96.10615964406004
 21
129.7997608296661
 31
0.0
 11
96.11202052837007
 21
129.7988747616665
 31
0.0
 11
96.11887400207522
 21
129.7978125726021
 31
0.0
 11
96.12650841485815
 21
129.7965940071641
 31
0.0
 11
96.13471211640152
 21
129.7952388100443
 31
0.0
 11
96.14327345638796
 21
129.793766725934
 31
0.0
 11
96.1519807845001
 21
129.7921974995247
 31
0.0
 11
96.15418848979785
 21
129.7917861459725
 31
0.0
 11
96.15720470795024
 21
129.7912137146903
 31
0.0
 11
96.16075712287586
 21
129.790522168269
 31
0.0
 11
96.16457341849332
 21
129.7897534692989
 31
0.0
 11
96.16640672019285
 21
129.7893718384625
 31
0.0
 11
96.16771135545162
 21
129.7890934533207
 31
0.0
 11
96.16823320636439
 21
129.7889798940841
 31
0.0
 11
96.16875473980707
 21
129.788864885634
 31
0.0
  0
SPLINE
  5
23F
330
1F
100
AcDbEntity
  8
0
  6
Continuous
 62
     7
100
AcDbSpline
210
0.0
220
0.0
230
1.0
 70
     8
 71
     3
 72
     9
 73
     5
 74
     3
 42
0.000000001
 43
0.0000000001
 44
0.00000001
 40
0.0
 40
0.0
 40
0.0
 40
0.0
 40
0.0000446013324234
 40
0.000089202457223
 40
0.000089202457223
 40
0.000089202457223
 40
0.000089202457223
 10
92.66875473980707
 20
129.788864885634
 30
0.0
 10
92.66873987269626
 20
129.7888648858899
 30
0.0
 10
92.66871013854386
 20
129.7888648862921
 30
0.0
 10
92.66868040439145
 20
129.7888648864748
 30
0.0
 10
92.66866553734985
 20
129.7888648865114
 30
0.0
 11
92.66875473980707
 21
129.788864885634
 31
0.0
 11
92.66871013847465
 21
129.788864886292
 31
0.0
 11
92.66866553734985
 21
129.7888648865114
 31
0.0
  0
SPLINE
  5
240
330
1F
100
AcDbEntity
  8
0
  6
Continuous
 62
     7
100
AcDbSpline
210
0.0
220
0.0
230
1.0
 70
     8
 71
     3
 72
     9
 73
     5
 74
     3
 42
0.000000001
 43
0.0000000001
 44
0.00000001
 40
0.0
 40
0.0
 40
0.0
 40
0.0
 40
0.0000446011220427
 40
0.0000892024484691
 40
0.0000892024484691
 40
0.0000892024484691
 40
0.0000892024484691
 10
72.66884394226423
 20
129.7888648865114
 30
0.0
 10
72.66882907522354
 20
129.7888648864748
 30
0.0
 10
72.66879934107405
 20
129.7888648862921
 30
0.0
 10
72.66876960692458
 20
129.7888648858899
 30
0.0
 10
72.66875473981577
 20
129.788864885634
 30
0.0
 11
72.66884394226423
 21
129.7888648865114
 31
0.0
 11
72.66879934114218
 21
129.788864886292
 31
0.0
 11
72.66875473981577
 21
129.788864885634
 31
0.0
  0
SPLINE
  5
241
330
1F
100
AcDbEntity
  8
0
  6
Continuous
 62
     7
100
AcDbSpline
210
0.0
220
0.0
230
1.0
 70
     8
 71
     3
 72
    26
 73
    22
 74
    20
 42
0.000000001
 43
0.0000000001
 44
0.00000001
 40
0.0
 40
0.0
 40
0.0
 40
0.0
 40
0.0100531107339607
 40
0.033289399173208
 40
0.0705700680795099
 40
0.1178891956687335
 40
0.1794257602476967
 40
0.2560993622453296
 40
0.3352468756175586
 40
0.4122608948511952
 40
0.4846751205950365
 40
0.5500110362775437
 40
0.7478396840392602
 40
0.9416794527009553
 40
1.275554463186891
 40
1.617105977246144
 40
1.959143611197013
 40
2.267519874708001
 40
2.571552240171548
 40
2.869410684446575
 40
3.159294256455068
 40
3.159294256455068
 40
3.159294256455068
 40
3.159294256455068
 10
70.66908939441015
 20
131.2891995411144
 30
0.0
 10
70.6721314547808
 20
131.29061937739
 30
0.0
 10
70.68220478233034
 20
131.295320975784
 30
0.0
 10
70.70536806809534
 20
131.3002711992587
 30
0.0
 10
70.74044850049965
 20
131.3077436187142
 30
0.0
 10
70.78861094387348
 20
131.315379084541
 30
0.0
 10
70.84989736425558
 20
131.3235740627684
 30
0.0
 10
70.9219592068619
 20
131.3312274771915
 30
0.0
 10
70.99929253163847
 20
131.3378210939227
 30
0.0
 10
71.07531112892289
 20
131.3430084830729
 30
0.0
 10
71.14679306128862
 20
131.3469335512614
 30
0.0
 10
71.25854467542675
 20
131.3518804388449
 30
0.0
 10
71.410841576816
 20
131.3559214360371
 30
0.0
 10
71.65269221746519
 20
131.3576867982795
 30
0.0
 10
71.94244835757206
 20
131.3540634320885
 30
0.0
 10
72.28147003027291
 20
131.3442969876565
 30
0.0
 10
72.6118815460788
 20
131.3315425019108
 30
0.0
 10
72.92974452481971
 20
131.3180533835111
 30
0.0
 10
73.23291189700899
 20
131.305654520436
 30
0.0
 10
73.5299864754328
 20
131.2949490428825
 30
0.0
 10
73.72586575056852
 20
131.2910986219968
 30
0.0
 10
73.82247647853768
 20
131.2891995411144
 30
0.0
 11
70.66908939441015
 21
131.2891995411144
 31
0.0
 11
70.67829339263865
 21
131.2932432327391
 31
0.0
 11
70.70073223188999
 21
131.2992784284029
 31
0.0
 11
70.73725284236428
 21
131.306767972642
 31
0.0
 11
70.78394093038386
 21
131.31447006737
 31
0.0
 11
70.8449300644483
 21
131.3226599572642
 31
0.0
 11
70.92116172985965
 21
131.3308803235633
 31
0.0
 11
71.00001869324717
 21
131.3376558819149
 31
0.0
 11
71.0768513928735
 21
131.3429374935429
 31
0.0
 11
71.14915556425345
 21
131.3469283440041
 31
0.0
 11
71.21442694290181
 21
131.3498316188554
 31
0.0
 11
71.41217954682556
 21
131.3553162791891
 31
0.0
 11
71.60601304001403
 21
131.3568760295429
 31
0.0
 11
71.93986780379245
 21
131.3531991688602
 31
0.0
 11
72.28128846015488
 21
131.3437454846251
 31
0.0
 11
72.62308405791794
 21
131.3308803235634
 31
0.0
 11
72.93119418881537
 21
131.3180714550246
 31
0.0
 11
73.23497955418446
 21
131.305818659644
 31
0.0
 11
73.53266527657522
 21
131.2956765006109
 31
0.0
 11
73.82247647853768
 21
131.2891995411144
 31
0.0
  0
SPLINE
  5
242
330
1F
100
AcDbEntity
  8
0
  6
Continuous
 62
     7
100
AcDbSpline
210
0.0
220
0.0
230
1.0
 70
     8
 71
     3
 72
    25
 73
    21
 74
    19
 42
0.000000001
 43
0.0000000001
 44
0.00000001
 40
0.0
 40
0.0
 40
0.0
 40
0.0
 40
0.6312254330094355
 40
1.203929155064678
 40
1.526160701025448
 40
1.798842991787575
 40
2.085460673658446
 40
2.383118466130824
 40
2.741937494752211
 40
3.046802069223994
 40
3.279992590483763
 40
3.483714552013911
 40
3.656839327335459
 40
3.860052727369709
 40
4.092892671318221
 40
4.37294161224964
 40
4.798090587946213
 40
5.330401554848462
 40
5.814975804276886
 40
6.371940980827604
 40
6.371940980827604
 40
6.371940980827604
 40
6.371940980827604
 10
73.86875473362994
 20
174.4128563141284
 30
0.0
 10
73.76990741559744
 20
174.2270709315134
 30
0.0
 10
73.58137702898762
 20
173.8727245708046
 30
0.0
 10
73.31535760551381
 20
173.4386735233743
 30
0.0
 10
73.09694243193461
 20
173.1164396357
 30
0.0
 10
72.92244782940942
 20
172.8799205609454
 30
0.0
 10
72.7427136676945
 20
172.657735615961
 30
0.0
 10
72.53075975944213
 20
172.4252831472448
 30
0.0
 10
72.29427167659387
 20
172.2079532084402
 30
0.0
 10
72.04687831652757
 20
172.0375935363197
 30
0.0
 10
71.81887613836216
 20
171.937512169567
 30
0.0
 10
71.61553544520459
 20
171.9033770609585
 30
0.0
 10
71.42099613769489
 20
171.9317203171678
 30
0.0
 10
71.23874758000301
 20
172.0310896330907
 30
0.0
 10
71.07576596160317
 20
172.2099396261733
 30
0.0
 10
70.92560040646558
 20
172.4865039472772
 30
0.0
 10
70.80079120920807
 20
172.881922508808
 30
0.0
 10
70.72058881470856
 20
173.3567631622807
 30
0.0
 10
70.67571326481249
 20
173.8799182786083
 30
0.0
 10
70.67117928781002
 20
174.2271653162894
 30
0.0
 10
70.66875473980707
 20
174.4128563261165
 30
0.0
 11
73.86875473362994
 21
174.4128563141284
 31
0.0
 11
73.56635144480998
 21
173.8587824879348
 31
0.0
 11
73.26702436147116
 21
173.3705275836998
 31
0.0
 11
73.0857740385635
 21
173.1041040675566
 31
0.0
 11
72.92363881739124
 21
172.8848603630559
 31
0.0
 11
72.74291904750866
 21
172.6623967467533
 31
0.0
 11
72.54163668097203
 21
172.443112523372
 31
0.0
 11
72.27520988973487
 21
172.2027630680319
 31
0.0
 11
72.0216607769521
 21
172.0334844320711
 31
0.0
 11
71.80658831798537
 21
171.943364196226
 31
0.0
 11
71.60511055965708
 21
171.9132087522616
 31
0.0
 11
71.43397074717714
 21
171.9393497669452
 31
0.0
 11
71.25438944732974
 21
172.0344615064778
 31
0.0
 11
71.09364666604482
 21
172.2029138678627
 31
0.0
 11
70.95541582136957
 21
172.4464701102123
 31
0.0
 11
70.82013912372125
 21
172.8495232916445
 31
0.0
 11
70.725486425464
 21
173.3733513481085
 31
0.0
 11
70.68322418018955
 21
173.8560791247565
 31
0.0
 11
70.66875473980707
 21
174.4128563261165
 31
0.0
  0
SPLINE
  5
243
330
1F
100
AcDbEntity
  8
0
  6
Continuous
 62
     7
100
AcDbSpline
210
0.0
220
0.0
230
1.0
 70
     8
 71
     3
 72
    23
 73
    19
 74
    17
 42
0.000000001
 43
0.0000000001
 44
0.00000001
 40
0.0
 40
0.0
 40
0.0
 40
0.0
 40
2.417311911659534
 40
4.55787797018989
 40
7.051168526648377
 40
9.12191946405502
 40
10.4530375420678
 40
11.61276239631081
 40
12.5320695985543
 40
13.40056503091336
 40
14.26979128540829
 40
15.1891240714518
 40
16.3407448866791
 40
17.66129526559941
 40
19.74049289280541
 40
22.24746059033839
 40
24.39327039383545
 40
26.81744156984362
 40
26.81744156984362
 40
26.81744156984362
 40
26.81744156984362
 10
138.5187538768587
 20
174.4128563141284
 30
0.0
 10
138.8955775148443
 20
175.1252206939876
 30
0.0
 10
139.6060841628172
 20
176.4683944418096
 30
0.0
 10
140.8145189613703
 20
178.4856300220887
 30
0.0
 10
142.0820363337995
 20
180.329336189924
 30
0.0
 10
143.3685666256053
 20
181.8231213640672
 30
0.0
 10
144.5192113877022
 20
182.82447511454
 30
0.0
 10
145.4933204613006
 20
183.4238222362008
 30
0.0
 10
146.4235108540696
 20
183.7614311924602
 30
0.0
 10
147.3107189793482
 20
183.8708733046232
 30
0.0
 10
148.1984501294169
 20
183.7652929608838
 30
0.0
 10
149.1275632890348
 20
183.4317775994175
 30
0.0
 10
150.0982856176218
 20
182.8389064352592
 30
0.0
 10
151.2495150675454
 20
181.8434084673623
 30
0.0
 10
152.5413016119371
 20
180.3488098751128
 30
0.0
 10
153.8151246215597
 20
178.4983160626871
 30
0.0
 10
155.0284149997662
 20
176.4739573692731
 30
0.0
 10
155.7408427354192
 20
175.1272333717216
 30
0.0
 10
156.1187538830151
 20
174.4128563261165
 30
0.0
 11
138.5187538768587
 21
174.4128563141284
 31
0.0
 11
139.6690905469431
 21
176.5389142744262
 31
0.0
 11
140.7715419945602
 21
178.3737504685675
 31
0.0
 11
142.2016676105152
 21
180.4161114858394
 31
0.0
 11
143.5728510525653
 21
181.9678412998798
 31
0.0
 11
144.5862065888537
 21
182.8309669547795
 31
0.0
 11
145.5813601553055
 21
183.4264760799249
 31
0.0
 11
146.4482094915789
 21
183.7325773072503
 31
0.0
 11
147.3105589981062
 21
183.8357162702396
 31
0.0
 11
148.1740641207602
 21
183.7361512878292
 31
0.0
 11
149.0420039895936
 21
183.4330784308167
 31
0.0
 11
150.0320805553778
 21
182.8448787220952
 31
0.0
 11
151.0400571092214
 21
181.9917453376751
 31
0.0
 11
152.4199621718321
 21
180.4364560417697
 31
0.0
 11
153.8594497093621
 21
178.3839544780265
 31
0.0
 11
154.9650249057542
 21
176.5448777529629
 31
0.0
 11
156.1187538830151
 21
174.4128563261165
 31
0.0
  0
SPLINE
  5
244
330
1F
100
AcDbEntity
  8
0
  6
Continuous
 62
     7
100
AcDbSpline
210
0.0
220
0.0
230
1.0
 70
     8
 71
     3
 72
    72
 73
    68
 74
    66
 42
0.000000001
 43
0.0000000001
 44
0.00000001
 40
0.0
 40
0.0
 40
0.0
 40
0.0
 40
0.1064429264694081
 40
0.2140581046524524
 40
0.3227794831443911
 40
0.4325398558831801
 40
0.5432710313840495
 40
0.6549039876087126
 40
0.767369015047267
 40
0.880595849886929
 40
0.9945137989125858
 40
1.109051857613584
 40
1.224138822829002
 40
1.339703401149046
 40
1.453799271950967
 40
1.568320751621042
 40
1.683066203598763
 40
1.797834311971111
 40
1.912424190046722
 40
2.026635496378935
 40
2.140268561321135
 40
2.253124527607691
 40
2.365005509030063
 40
2.475714772076393
 40
2.547296565351529
 40
2.619624594358364
 40
2.692436196307557
 40
2.765469358035089
 40
2.838462831657908
 40
2.911156276004459
 40
2.939566478680346
 40
2.969232622433996
 40
3.000015748437984
 40
3.031777045675514
 40
3.064377872613107
 40
3.097679782750561
 40
3.131544554981677
 40
3.16583422994343
 40
3.200411153858321
 40
3.235138031819725
 40
3.252533144149151
 40
3.270875552333411
 40
3.290034598379203
 40
3.309879776583734
 40
3.330280761806426
 40
3.351107444388147
 40
3.36283438606117
 40
3.375753911710099
 40
3.389672097597396
 40
3.404395210041195
 40
3.419729755189106
 40
3.435482545548943
 40
3.440190062735757
 40
3.446117547990557
 40
3.453052845210228
 40
3.46078389691095
 40
3.469098779858201
 40
3.477785757136012
 40
3.486633357639311
 40
3.488879058963606
 40
3.491949115894629
 40
3.49556821638259
 40
3.499461160060611
 40
3.500805955323552
 40
3.502667767002016
 40
3.503201830802797
 40
3.50373589440843
 40
3.50373589440843
 40
3.50373589440843
 40
3.50373589440843
 10
157.3187538830312
 20
129.788864885634
 30
0.0
 10
157.3542349111221
 20
129.7889353278968
 30
0.0
 10
157.4255877184059
 20
129.7890770027902
 30
0.0
 10
157.5331765192337
 20
129.7901509193503
 30
0.0
 10
157.6418637377955
 20
129.7917694273105
 30
0.0
 10
157.7515804096303
 20
129.7939355523028
 30
0.0
 10
157.8622575837035
 20
129.7965649218165
 30
0.0
 10
157.9738262950671
 20
129.7995969264791
 30
0.0
 10
158.0862175740125
 20
129.802964499047
 30
0.0
 10
158.1993624450562
 20
129.806602321676
 30
0.0
 10
158.3131919284876
 20
129.8104446001584
 30
0.0
 10
158.4276370412141
 20
129.8144256646156
 30
0.0
 10
158.5426287972186
 20
129.8184798171389
 30
0.0
 10
158.657473581985
 20
129.8225193645995
 30
0.0
 10
158.7721324822085
 20
129.8264811054757
 30
0.0
 10
158.8865230191062
 20
129.830301195531
 30
0.0
 10
159.0011438782485
 20
129.833934188942
 30
0.0
 10
159.1157954411175
 20
129.8373105387356
 30
0.0
 10
159.2302780943227
 20
129.8403606940728
 30
0.0
 10
159.344392232226
 20
129.8430151134099
 30
0.0
 10
159.4579382559311
 20
129.8452042585667
 30
0.0
 10
159.5707165885614
 20
129.8468586213073
 30
0.0
 10
159.6825276322227
 20
129.8479086409735
 30
0.0
 10
159.7805851296616
 20
129.8482422049604
 30
0.0
 10
159.8654582308709
 20
129.8480553391291
 30
0.0
 10
159.9376972323263
 20
129.8475470225725
 30
0.0
 10
160.0104163115183
 20
129.8466476864822
 30
0.0
 10
160.0833507229632
 20
129.845317081356
 30
0.0
 10
160.1562356785786
 20
129.8435150404935
 30
0.0
 10
160.214239202203
 20
129.8416657946577
 30
0.0
 10
160.2577987214421
 20
129.8400362809251
 30
0.0
 10
160.2873940638789
 20
129.8388307159772
 30
0.0
 10
160.3181007821755
 20
129.8374682883455
 30
0.0
 10
160.349778986184
 20
129.8359374060274
 30
0.0
 10
160.3822887820664
 20
129.8342264723121
 30
0.0
 10
160.4154902816442
 20
129.8323238971964
 30
0.0
 10
160.4492435994318
 20
129.8302180953015
 30
0.0
 10
160.4834088604285
 20
129.8278974936548
 30
0.0
 10
160.5178461787782
 20
129.8253505141452
 30
0.0
 10
160.5466527482748
 20
129.8230299066796
 30
0.0
 10
160.5700545668544
 20
129.8210175929759
 30
0.0
 10
160.5882799543702
 20
129.8193789039913
 30
0.0
 10
160.6073112049131
 20
129.8175850242433
 30
0.0
 10
160.627016562077
 20
129.815632850792
 30
0.0
 10
160.6472642663525
 20
129.8135193098612
 30
0.0
 10
160.6648095729117
 20
129.8115845616001
 30
0.0
 10
160.6798674982627
 20
129.8098478477073
 30
0.0
 10
160.6926317613654
 20
129.8083238078211
 30
0.0
 10
160.7063799488985
 20
129.8066175364509
 30
0.0
 10
160.7209172065977
 20
129.8047345912614
 30
0.0
 10
160.7360487089213
 20
129.8026807509324
 30
0.0
 10
160.747860425771
 20
129.8009925691069
 30
0.0
 10
160.7565613506492
 20
129.7997032245451
 30
0.0
 10
160.7623523480821
 20
129.7988278977751
 30
0.0
 10
160.7691360312876
 20
129.7977768064614
 30
0.0
 10
160.7767008097159
 20
129.7965699571365
 30
0.0
 10
160.7848350966643
 20
129.7952272966748
 30
0.0
 10
160.7933273277669
 20
129.7937688683157
 30
0.0
 10
160.7998166774796
 20
129.7926014102316
 30
0.0
 10
160.8044579680147
 20
129.7917368722094
 30
0.0
 10
160.8073840679517
 20
129.7911817319533
 30
0.0
 10
160.8108465714226
 20
129.7905083188547
 30
0.0
 10
160.8137410038001
 20
129.7899265751032
 30
0.0
 10
160.816058256008
 20
129.7894462055025
 30
0.0
 10
160.8172780612381
 20
129.7891876770906
 30
0.0
 10
160.8182324212208
 20
129.7889802199514
 30
0.0
 10
160.8185800614151
 20
129.7889033256999
 30
0.0
 10
160.8187538830358
 20
129.788864885634
 30
0.0
 11
157.3187538830312
 21
129.788864885634
 31
0.0
 11
157.4251962248893
 21
129.7892172880698
 31
0.0
 11
157.5328065921606
 21
129.7902348178795
 31
0.0
 11
157.6415159466885
 21
129.7918517133187
 31
0.0
 11
157.7512552503163
 21
129.7940022126431
 31
0.0
 11
157.8619554648876
 21
129.7966205541086
 31
0.0
 11
157.9735475522454
 21
129.7996409759708
 31
0.0
 11
158.0859624742334
 21
129.8029977164855
 31
0.0
 11
158.1991311926947
 21
129.8066250139086
 31
0.0
 11
158.3129846694729
 21
129.8104571064956
 31
0.0
 11
158.4274538664112
 21
129.8144282325024
 31
0.0
 11
158.542469745353
 21
129.8184726301846
 31
0.0
 11
158.6579632681417
 21
129.8225245377981
 31
0.0
 11
158.7719914442303
 21
129.8264542695082
 31
0.0
 11
158.8864494601974
 21
129.8302663406208
 31
0.0
 11
159.0011376477002
 21
129.8338910332169
 31
0.0
 11
159.115856338396
 21
129.8372586293774
 31
0.0
 11
159.2304058639422
 21
129.8402994111832
 31
0.0
 11
159.3445865559961
 21
129.8429436607152
 31
0.0
 11
159.4581987462148
 21
129.8451216600543
 31
0.0
 11
159.5710427662559
 21
129.8467636912815
 31
0.0
 11
159.6829189477764
 21
129.8478000364775
 31
0.0
 11
159.7936276224339
 21
129.8481609777234
 31
0.0
 11
159.8652092312982
 21
129.8479984961711
 31
0.0
 11
159.9375354311612
 21
129.8474841104576
 31
0.0
 11
160.0103413874415
 21
129.8465774089293
 31
0.0
 11
160.083362265558
 21
129.8452379799327
 31
0.0
 11
160.1563332309293
 21
129.8434254118141
 31
0.0
 11
160.2289894489741
 21
129.8410992929199
 31
0.0
 11
160.2573797675539
 21
129.8400365479834
 31
0.0
 11
160.2870212950764
 21
129.8388282719
 31
0.0
 11
160.3177741219974
 21
129.8374628112989
 31
0.0
 11
160.3494983387729
 21
129.8359285128093
 31
0.0
 11
160.3820540358589
 21
129.8342137230607
 31
0.0
 11
160.4153013037114
 21
129.8323067886823
 31
0.0
 11
160.4491002327863
 21
129.8301960563034
 31
0.0
 11
160.4833109135396
 21
129.8278698725533
 31
0.0
 11
160.5177934364271
 21
129.8253165840613
 31
0.0
 11
160.552407891905
 21
129.8225245374567
 31
0.0
 11
160.5697390000905
 21
129.8210336914449
 31
0.0
 11
160.588007652028
 21
129.819390434263
 31
0.0
 11
160.6070820654659
 21
129.8175916021055
 31
0.0
 11
160.6268304581523
 21
129.8156340311669
 31
0.0
 11
160.6471210478355
 21
129.8135145576418
 31
0.0
 11
160.6678220522638
 21
129.8112300177247
 31
0.0
 11
160.6794717185907
 21
129.8098859807677
 31
0.0
 11
160.6923000582423
 21
129.8083537129701
 31
0.0
 11
160.7061121708483
 21
129.8066386492586
 31
0.0
 11
160.7207131560386
 21
129.8047462245601
 31
0.0
 11
160.7359081134429
 21
129.8026818738014
 31
0.0
 11
160.7515021426911
 21
129.8004510319094
 31
0.0
 11
160.7561587872867
 21
129.7997608296664
 31
0.0
 11
160.7620196715956
 21
129.798874761667
 31
0.0
 11
160.7688731453005
 21
129.7978125726026
 31
0.0
 11
160.7765075580837
 21
129.7965940071647
 31
0.0
 11
160.7847112596278
 21
129.7952388100448
 31
0.0
 11
160.7932725996154
 21
129.7937667259343
 31
0.0
 11
160.8019799277288
 21
129.7921974995248
 31
0.0
 11
160.8041876330242
 21
129.7917861459729
 31
0.0
 11
160.8072038511764
 21
129.7912137146909
 31
0.0
 11
160.8107562661031
 21
129.7905221682693
 31
0.0
 11
160.814572561722
 21
129.7897534692989
 31
0.0
 11
160.8158893325786
 21
129.7894803598253
 31
0.0
 11
160.8177104986803
 21
129.7890934533207
 31
0.0
 11
160.8182323495931
 21
129.7889798940841
 31
0.0
 11
160.8187538830358
 21
129.788864885634
 31
0.0
  0
SPLINE
  5
245
330
1F
100
AcDbEntity
  8
0
  6
Continuous
 62
     7
100
AcDbSpline
210
0.0
220
0.0
230
1.0
 70
     8
 71
     3
 72
    27
 73
    23
 74
    21
 42
0.000000001
 43
0.0000000001
 44
0.00000001
 40
0.0
 40
0.0
 40
0.0
 40
0.0
 40
0.0100531107342438
 40
0.0332893991737856
 40
0.0705700680795496
 40
0.1060483488396347
 40
0.149565546674623
 40
0.1983593516736957
 40
0.2561019793610925
 40
0.3352494927253699
 40
0.4122635119549825
 40
0.4846777377008387
 40
0.550013653393403
 40
0.7478423012618509
 40
0.9416820698165131
 40
1.275557080306499
 40
1.617108594367773
 40
1.959146228312402
 40
2.267522491823703
 40
2.571554857287349
 40
2.869413301562292
 40
3.159296873570472
 40
3.159296873570472
 40
3.159296873570472
 40
3.159296873570472
 10
135.3190885376389
 20
131.2891995411145
 30
0.0
 10
135.3221305809387
 20
131.2906194214442
 30
0.0
 10
135.3322038519589
 20
131.295321165721
 30
0.0
 10
135.3553682083403
 20
131.3002686263088
 30
0.0
 10
135.3865896860182
 20
131.3069385525756
 30
0.0
 10
135.4248704772603
 20
131.3132170501241
 30
0.0
 10
135.4670241833279
 20
131.3192933675454
 30
0.0
 10
135.5166791200228
 20
131.3253631876029
 30
0.0
 10
135.5782429803588
 20
131.3317707889188
 30
0.0
 10
135.6492925751358
 20
131.3378189729522
 30
0.0
 10
135.7253100492866
 20
131.3430090081003
 30
0.0
 10
135.7967922544877
 20
131.3469334335191
 30
0.0
 10
135.9085437751438
 20
131.351880541433
 30
0.0
 10
136.0608407356926
 20
131.3559213992572
 30
0.0
 10
136.3026913531505
 20
131.3576868161384
 30
0.0
 10
136.5924475033357
 20
131.3540634261246
 30
0.0
 10
136.9314691728168
 20
131.3442969892779
 30
0.0
 10
137.2618806894742
 20
131.3315425015231
 30
0.0
 10
137.5797436680072
 20
131.3180533836089
 30
0.0
 10
137.8829110402488
 20
131.3056545204107
 30
0.0
 10
138.1799856186591
 20
131.2949490428886
 30
0.0
 10
138.3758648937965
 20
131.2910986219988
 30
0.0
 10
138.4724756217664
 20
131.2891995411144
 30
0.0
 11
135.3190885376389
 21
131.2891995411145
 31
0.0
 11
135.3282925358677
 21
131.2932432327392
 31
0.0
 11
135.3507313751194
 21
131.299278428403
 31
0.0
 11
135.3872519855931
 21
131.306767972642
 31
0.0
 11
135.4222341733566
 21
131.3126802428621
 31
0.0
 11
135.4653050510532
 21
131.318896833253
 31
0.0
 11
135.5137320686704
 21
131.3248683796093
 31
0.0
 11
135.5711608730883
 21
131.3308803235633
 31
0.0
 11
135.650017836468
 21
131.3376558819143
 31
0.0
 11
135.7268505360904
 21
131.3429374935422
 31
0.0
 11
135.7991547074724
 21
131.3469283440036
 31
0.0
 11
135.8644260861308
 21
131.3498316188554
 31
0.0
 11
136.0621786901613
 21
131.3553162791908
 31
0.0
 11
136.2560121832428
 21
131.3568760295429
 31
0.0
 11
136.5898669470253
 21
131.3531991688601
 31
0.0
 11
136.9312876033898
 21
131.3437454846249
 31
0.0
 11
137.2730832011466
 21
131.3308803235634
 31
0.0
 11
137.5811933320443
 21
131.3180714550246
 31
0.0
 11
137.8849786974135
 21
131.305818659644
 31
0.0
 11
138.1826644198042
 21
131.2956765006109
 31
0.0
 11
138.4724756217664
 21
131.2891995411144
 31
0.0
  0
SPLINE
  5
246
330
1F
100
AcDbEntity
  8
0
  6
Continuous
 62
     7
100
AcDbSpline
210
0.0
220
0.0
230
1.0
 70
     8
 71
     3
 72
     9
 73
     5
 74
     3
 42
0.000000001
 43
0.0000000001
 44
0.00000001
 40
0.0
 40
0.0
 40
0.0
 40
0.0
 40
0.0000446011247285
 40
0.0000892024570809
 40
0.0000892024570809
 40
0.0000892024570809
 40
0.0000892024570809
 10
137.3188430854929
 20
129.7888648865113
 30
0.0
 10
137.3188282184513
 20
129.7888648864748
 30
0.0
 10
137.3187984842989
 20
129.788864886292
 30
0.0
 10
137.3187687501466
 20
129.7888648858899
 30
0.0
 10
137.3187538830358
 20
129.788864885634
 30
0.0
 11
137.3188430854929
 21
129.7888648865113
 31
0.0
 11
137.3187984843681
 21
129.788864886292
 31
0.0
 11
137.3187538830358
 21
129.788864885634
 31
0.0
  0
SPLINE
  5
247
330
1F
100
AcDbEntity
  8
0
  6
Continuous
 62
     7
100
AcDbSpline
210
0.0
220
0.0
230
1.0
 70
     8
 71
     3
 72
    72
 73
    68
 74
    66
 42
0.000000001
 43
0.0000000001
 44
0.00000001
 40
0.0
 40
0.0
 40
0.0
 40
0.0
 40
0.0005340628271231
 40
0.0010681258511308
 40
0.0024021298622204
 40
0.0042747290138937
 40
0.0081676682739998
 40
0.011786764627336
 40
0.0148568179676587
 40
0.0171025165058647
 40
0.0259501114791265
 40
0.0346370833579739
 40
0.0429519610524177
 40
0.0506830076614231
 40
0.0576182999657126
 40
0.0635457804967702
 40
0.0682532931667161
 40
0.0840060837173993
 40
0.0993406289605254
 40
0.1140637412018515
 40
0.1279819263867022
 40
0.1409014506306761
 40
0.1526283899934835
 40
0.1734550853024449
 40
0.193856082835145
 40
0.213701272665915
 40
0.2328603293869584
 40
0.2512027470278137
 40
0.2685978673271527
 40
0.303324727664983
 40
0.3379016337813933
 40
0.3721912909184113
 40
0.4060560454480077
 40
0.4393579381569335
 40
0.4719587480892817
 40
0.5037200288954384
 40
0.5345031391928458
 40
0.5641692681158176
 40
0.5925794569882414
 40
0.6652729308993613
 40
0.7382664343234302
 40
0.8112996256764367
 40
0.884111256661008
 40
0.9564393136972004
 40
1.028021133578594
 40
1.138730396820633
 40
1.250611378419745
 40
1.363467344848767
 40
1.477100409884471
 40
1.591311716245978
 40
1.705901594271835
 40
1.820669702500219
 40
1.935415154225089
 40
2.049936633518173
 40
2.164032503804111
 40
2.279597081109173
 40
2.394684045358206
 40
2.509222103137088
 40
2.623140051280396
 40
2.736366885273184
 40
2.848831911895925
 40
2.960464867331416
 40
3.071196042065327
 40
3.180956414055125
 40
3.289677791811353
 40
3.397292969267679
 40
3.503735895014824
 40
3.503735895014824
 40
3.503735895014824
 40
3.503735895014824
 10
133.8187538830358
 20
129.788864885634
 30
0.0
 10
133.8189277044688
 20
129.7889033253283
 30
0.0
 10
133.8192753442797
 20
129.7889802188741
 30
0.0
 10
133.8200577811778
 20
129.789150310833
 30
0.0
 10
133.8212772998997
 20
129.7894101551714
 30
0.0
 10
133.8235942744285
 20
129.7898918826313
 30
0.0
 10
133.8266611824171
 20
129.7905083242759
 30
0.0
 10
133.8301236845314
 20
129.7911817276305
 30
0.0
 10
133.8330497804652
 20
129.7917368691827
 30
0.0
 10
133.8376910672404
 20
129.7926014060286
 30
0.0
 10
133.8441804123106
 20
129.7937688638532
 30
0.0
 10
133.8526726381021
 20
129.7952272913654
 30
0.0
 10
133.8608069198295
 20
129.7965699512084
 30
0.0
 10
133.8683716932062
 20
129.7977767999167
 30
0.0
 10
133.8751553715309
 20
129.7988278906596
 30
0.0
 10
133.8809463642744
 20
129.7997032168821
 30
0.0
 10
133.8896472861321
 20
129.800992561248
 30
0.0
 10
133.9014590015403
 20
129.8026807431922
 30
0.0
 10
133.9165905038425
 20
129.804734583887
 30
0.0
 10
133.9311277612331
 20
129.8066175293586
 30
0.0
 10
133.9448759479675
 20
129.8083238009128
 30
0.0
 10
133.9576402095786
 20
129.8098478408708
 30
0.0
 10
133.9726981378812
 20
129.8115845553907
 30
0.0
 10
133.99024345194
 20
129.8135193047609
 30
0.0
 10
134.010491168347
 20
129.8156328471887
 30
0.0
 10
134.0301965369774
 20
129.8175850219245
 30
0.0
 10
134.0492277980518
 20
129.8193789027494
 30
0.0
 10
134.0674531948944
 20
129.8210175926072
 30
0.0
 10
134.0908550134086
 20
129.823029906304
 30
0.0
 10
134.1196615737815
 20
129.8253505130636
 30
0.0
 10
134.1540988744197
 20
129.8278974914058
 30
0.0
 10
134.1882641176664
 20
129.8302180920807
 30
0.0
 10
134.2220174178172
 20
129.8323238931835
 30
0.0
 10
134.2552189000238
 20
129.8342264676727
 30
0.0
 10
134.2877286789526
 20
129.835937400912
 30
0.0
 10
134.3194068665773
 20
129.8374682828899
 30
0.0
 10
134.3501135692119
 20
129.8388307103023
 30
0.0
 10
134.3797088968608
 20
129.8400362751371
 30
0.0
 10
134.4232684163813
 20
129.8416657896375
 30
0.0
 10
134.4812719551586
 20
129.8435150368356
 30
0.0
 10
134.5541569404099
 20
129.8453170792246
 30
0.0
 10
134.6270913813281
 20
129.8466476854255
 30
0.0
 10
134.6998104894111
 20
129.8475470221965
 30
0.0
 10
134.7720495187556
 20
129.8480553390983
 30
0.0
 10
134.8569226382422
 20
129.8482422049811
 30
0.0
 10
134.9549801446737
 20
129.8479086409029
 30
0.0
 10
135.066791188506
 20
129.8468586211732
 30
0.0
 10
135.1795695212731
 20
129.8452042583758
 30
0.0
 10
135.2931155450657
 20
129.8430151131696
 30
0.0
 10
135.4072296829924
 20
129.840360693791
 30
0.0
 10
135.5217123361418
 20
129.8373105384212
 30
0.0
 10
135.6363638988612
 20
129.833934188604
 30
0.0
 10
135.750984757745
 20
129.8303011951797
 30
0.0
 10
135.8653752942605
 20
129.8264811051216
 30
0.0
 10
135.9800341938481
 20
129.8225193642583
 30
0.0
 10
136.0948789777824
 20
129.8184798168235
 30
0.0
 10
136.2098707328197
 20
129.8144256643357
 30
0.0
 10
136.3243158446234
 20
129.8104445999161
 30
0.0
 10
136.4381453271718
 20
129.8066023214725
 30
0.0
 10
136.5512901973679
 20
129.8029644988819
 30
0.0
 10
136.6636814754968
 20
129.7995969263511
 30
0.0
 10
136.7752501860704
 20
129.7965649217231
 30
0.0
 10
136.8859273593757
 20
129.7939355522403
 30
0.0
 10
136.9956440304604
 20
129.7917694272742
 30
0.0
 10
137.1043312482852
 20
129.790150919334
 30
0.0
 10
137.2119200483849
 20
129.7890770027875
 30
0.0
 10
137.2832728551857
 20
129.7889353278959
 30
0.0
 10
137.3187538830358
 20
129.788864885634
 30
0.0
 11
133.8187538830358
 21
129.788864885634
 31
0.0
 11
133.8192754157189
 21
129.7889798939179
 31
0.0
 11
133.8197972658713
 21
129.7890934529922
 31
0.0
 11
133.8211018993628
 21
129.7893718377691
 31
0.0
 11
133.8229351985257
 21
129.7897534681012
 31
0.0
 11
133.8267514898016
 21
129.7905221662598
 31
0.0
 11
133.8303039006567
 21
129.7912137119585
 31
0.0
 11
133.8333201152691
 21
129.7917861426352
 31
0.0
 11
133.8355278178161
 21
129.7921974957275
 31
0.0
 11
133.8442351404498
 21
129.7937667213631
 31
0.0
 11
133.852796475081
 21
129.7952388047649
 31
0.0
 11
133.8610001714091
 21
129.7965940012317
 31
0.0
 11
133.8686345791332
 21
129.797812566062
 31
0.0
 11
133.8754880479526
 21
129.7988747545543
 31
0.0
 11
133.8813489275667
 21
129.7997608220075
 31
0.0
 11
133.8860055676747
 21
129.80045102372
 31
0.0
 11
133.9015995970514
 21
129.8026818660612
 31
0.0
 11
133.9167945545004
 21
129.8047462171981
 31
0.0
 11
133.9313955394485
 21
129.8066386421897
 31
0.0
 11
133.9452076513226
 21
129.8083537060953
 31
0.0
 11
133.9580359895496
 21
129.8098859739742
 31
0.0
 11
133.9696856535562
 21
129.8112300108854
 31
0.0
 11
133.9903866705983
 21
129.8135145525304
 31
0.0
 11
134.0106772725009
 21
129.8156340275652
 31
0.0
 11
134.030425676742
 21
129.8175915997997
 31
0.0
 11
134.0495001008
 21
129.8193904330442
 31
0.0
 11
134.0677687621529
 21
129.8210336911085
 31
0.0
 11
134.085099878279
 21
129.8225245378029
 31
0.0
 11
134.1197143161879
 21
129.8253165830216
 31
0.0
 11
134.1541968213152
 21
129.8278698703388
 31
0.0
 11
134.1884074842691
 21
129.8301960531102
 31
0.0
 11
134.2222063956578
 21
129.8323067846917
 31
0.0
 11
134.2554536460893
 21
129.834213718439
 31
0.0
 11
134.2880093261718
 21
129.8359285077078
 31
0.0
 11
134.3197335265133
 21
129.8374628058539
 31
0.0
 11
134.3504863377221
 21
129.8388282662332
 31
0.0
 11
134.3801278504063
 21
129.8400365422012
 31
0.0
 11
134.4085181551739
 21
129.8410992871139
 31
0.0
 11
134.4811744027325
 21
129.8434254080657
 31
0.0
 11
134.5541453978759
 21
129.8452379777275
 31
0.0
 11
134.6271663056029
 21
129.8465774078119
 31
0.0
 11
134.6999722909123
 21
129.8474841100312
 31
0.0
 11
134.7722985188028
 21
129.8479984960976
 31
0.0
 11
134.8438801542733
 21
129.8481609777234
 31
0.0
 11
134.9545888291262
 21
129.8478000364081
 31
0.0
 11
135.0664650108229
 21
129.8467636911486
 31
0.0
 11
135.1793090310057
 21
129.8451216598645
 31
0.0
 11
135.292921221317
 21
129.8429436604757
 31
0.0
 11
135.4071019133992
 21
129.840299410902
 31
0.0
 11
135.5216514388947
 21
129.8372586290632
 31
0.0
 11
135.6363701294459
 21
129.833891032879
 31
0.0
 11
135.7510583166952
 21
129.8302663402692
 31
0.0
 11
135.865516332285
 21
129.8264542691537
 31
0.0
 11
135.9795445078576
 21
129.8225245374521
 31
0.0
 11
136.0950380296318
 21
129.8184726298706
 31
0.0
 11
136.2100539076079
 21
129.8144282322236
 31
0.0
 11
136.3245231036248
 21
129.8104571062543
 31
0.0
 11
136.4383765795214
 21
129.8066250137056
 31
0.0
 11
136.5515452971367
 21
129.8029977163208
 31
0.0
 11
136.6639602183095
 21
129.7996409758428
 31
0.0
 11
136.7755523048789
 21
129.7966205540149
 31
0.0
 11
136.8862525186836
 21
129.7940022125801
 31
0.0
 11
136.9959918215629
 21
129.7918517132815
 31
0.0
 11
137.1047011753553
 21
129.7902348178622
 31
0.0
 11
137.2123115419
 21
129.7892172880653
 31
0.0
 11
137.3187538830358
 21
129.788864885634
 31
0.0
  0
SPLINE
  5
248
330
1F
100
AcDbEntity
  8
0
  6
Continuous
 62
     7
100
AcDbSpline
210
0.0
220
0.0
230
1.0
 70
     8
 71
     3
 72
     9
 73
     5
 74
     3
 42
0.000000001
 43
0.0000000001
 44
0.00000001
 40
0.0
 40
0.0
 40
0.0
 40
0.0
 40
0.0000446013284302
 40
0.0000892024526187
 40
0.0000892024526187
 40
0.0000892024526187
 40
0.0000892024526187
 10
157.3187538830312
 20
129.788864885634
 30
0.0
 10
157.3187390159217
 20
129.7888648858899
 30
0.0
 10
157.3187092817709
 20
129.7888648862921
 30
0.0
 10
157.31867954762
 20
129.7888648864748
 30
0.0
 10
157.3186646805786
 20
129.7888648865113
 30
0.0
 11
157.3187538830312
 21
129.788864885634
 31
0.0
 11
157.3187092817028
 21
129.788864886292
 31
0.0
 11
157.3186646805786
 21
129.7888648865113
 31
0.0
  0
SPLINE
  5
249
330
1F
100
AcDbEntity
  8
0
  6
Continuous
 62
     7
100
AcDbSpline
210
0.0
220
0.0
230
1.0
 70
     8
 71
     3
 72
    25
 73
    21
 74
    19
 42
0.000000001
 43
0.0000000001
 44
0.00000001
 40
0.0
 40
0.0
 40
0.0
 40
0.0
 40
0.571985039096417
 40
1.200552185933566
 40
1.492778378260317
 40
1.79841942243915
 40
2.120876294839904
 40
2.381500329955147
 40
2.70974301796866
 40
3.045700947095469
 40
3.262317667838972
 40
3.483109091407327
 40
3.656402334349858
 40
3.859810735396115
 40
4.076130228294864
 40
4.372753917518959
 40
4.76666320996758
 40
5.330557886035862
 40
5.851836384671035
 40
6.371867476519286
 40
6.371867476519286
 40
6.371867476519286
 40
6.371867476519286
 10
138.5187538768587
 20
174.4128563141284
 30
0.0
 10
138.4293452011593
 20
174.2444332559143
 30
0.0
 10
138.2416833212919
 20
173.8909263400509
 30
0.0
 10
137.9828105743838
 20
173.4654879883983
 30
0.0
 10
137.7540730934098
 20
173.1265892743926
 30
0.0
 10
137.5725420959033
 20
172.8791678493563
 30
0.0
 10
137.3854976568055
 20
172.6492194874067
 30
0.0
 10
137.1796904633215
 20
172.425523693829
 30
0.0
 10
136.9532798058311
 20
172.2156760808674
 30
0.0
 10
136.7117874420661
 20
172.0455150023854
 30
0.0
 10
136.4752338225233
 20
171.9397612743423
 30
0.0
 10
136.2717071399816
 20
171.9025531867451
 30
0.0
 10
136.0713098973599
 20
171.9315929291516
 30
0.0
 10
135.8938225417708
 20
172.0282530825424
 30
0.0
 10
135.7289085424262
 20
172.2048239417024
 30
0.0
 10
135.5822815930026
 20
172.4720161565561
 30
0.0
 10
135.4527565036795
 20
172.8713913193171
 30
0.0
 10
135.3694263692013
 20
173.3586454230617
 30
0.0
 10
135.3251849124878
 20
173.8923194328439
 30
0.0
 10
135.3208958437556
 20
174.2394826529844
 30
0.0
 10
135.3187538830358
 20
174.4128563260899
 30
0.0
 11
138.5187538768587
 21
174.4128563141284
 31
0.0
 11
138.2458668353524
 21
173.9101640091185
 31
0.0
 11
137.9188670097956
 21
173.3733514035806
 31
0.0
 11
137.7550409011038
 21
173.1313655489675
 31
0.0
 11
137.5738931094851
 21
172.8851909650996
 31
0.0
 11
137.3697433932663
 21
172.6355886248982
 31
0.0
 11
137.1927715301104
 21
172.4442620780005
 31
0.0
 11
136.9504069851584
 21
172.2228965658419
 31
0.0
 11
136.6725914673805
 21
172.0339884698643
 31
0.0
 11
136.4735723203597
 21
171.948465472439
 31
0.0
 11
136.2556141153852
 21
171.913208218632
 31
0.0
 11
136.0842885664662
 21
171.9392486597111
 31
0.0
 11
135.9044963258103
 21
172.034378718656
 31
0.0
 11
135.753647073758
 21
172.1894226686154
 31
0.0
 11
135.6054568912166
 21
172.4463765227149
 31
0.0
 11
135.4779085123769
 21
172.8190639817534
 31
0.0
 11
135.3754578755334
 21
173.3735737411932
 31
0.0
 11
135.3312678408558
 21
173.8929758152851
 31
0.0
 11
135.3187538830358
 21
174.4128563260899
 31
0.0
  0
SPLINE
  5
24A
330
1F
100
AcDbEntity
  8
0
  6
Continuous
 62
     7
100
AcDbSpline
210
0.0
220
0.0
230
1.0
 70
     8
 71
     3
 72
    23
 73
    19
 74
    17
 42
0.000000001
 43
0.0000000001
 44
0.00000001
 40
0.0
 40
0.0
 40
0.0
 40
0.0
 40
0.5215676921677234
 40
1.044377365118349
 40
1.608809570028142
 40
2.002680938447901
 40
2.281510694041208
 40
2.513498304120372
 40
2.716746324702041
 40
2.890031854819658
 40
3.09384650547491
 40
3.327196854684098
 40
3.664238065003507
 40
3.993503978315447
 40
4.534918676734197
 40
5.170993578474471
 40
5.799557932437031
 40
6.371545844563612
 40
6.371545844563612
 40
6.371545844563612
 40
6.371545844563612
 10
159.3187538830358
 20
174.4128563247071
 30
0.0
 10
159.3165998220369
 20
174.2389712760011
 30
0.0
 10
159.3122865613532
 20
173.8907871158155
 30
0.0
 10
159.2677805282532
 20
173.3559064942185
 30
0.0
 10
159.1840219171899
 20
172.8680932941137
 30
0.0
 10
159.0556770417751
 20
172.4742246992467
 30
0.0
 10
158.9102043514031
 20
172.2078277347275
 30
0.0
 10
158.7472385862289
 20
172.0298985664011
 30
0.0
 10
158.5648825345564
 20
171.9311574334851
 30
0.0
 10
158.3701610293466
 20
171.9034214054598
 30
0.0
 10
158.1667839013206
 20
171.9380935606855
 30
0.0
 10
157.9290324468368
 20
172.042985963509
 30
0.0
 10
157.6826173910393
 20
172.2169327898903
 30
0.0
 10
157.3872358032334
 20
172.4913135439126
 30
0.0
 10
157.0602830165801
 20
172.8742215392949
 30
0.0
 10
156.7142456795707
 20
173.3675058046177
 30
0.0
 10
156.3958430166241
 20
173.8909222154182
 30
0.0
 10
156.2081688538986
 20
174.2444313676912
 30
0.0
 10
156.1187538830151
 20
174.4128563261165
 30
0.0
 11
159.3187538830358
 21
174.4128563247071
 31
0.0
 11
159.3061617158538
 21
173.8914406526856
 31
0.0
 11
159.2616698144577
 21
173.3705275836998
 31
0.0
 11
159.1586875309136
 21
172.8155695998642
 31
0.0
 11
159.0305845199228
 21
172.443112523372
 31
0.0
 11
158.892410340308
 21
172.2009267909675
 31
0.0
 11
158.7318447525588
 21
172.0334844320711
 31
0.0
 11
158.5519700343142
 21
171.9388543950564
 31
0.0
 11
158.3805927423874
 21
171.9132087522616
 31
0.0
 11
158.1791010716738
 21
171.9438929297183
 31
0.0
 11
157.9640435940348
 21
172.0344615064778
 31
0.0
 11
157.6854866401668
 21
172.2242055483041
 31
0.0
 11
157.4425576246521
 21
172.4464701102123
 31
0.0
 11
157.0871448324158
 21
172.8548958974503
 31
0.0
 11
156.7186407924753
 21
173.3733513481085
 31
0.0
 11
156.3916423495032
 21
173.9101615256051
 31
0.0
 11
156.1187538830151
 21
174.4128563261165
 31
0.0
  0
SPLINE
  5
24B
330
1F
100
AcDbEntity
  8
0
  6
Continuous
 62
     7
100
AcDbSpline
210
0.0
220
0.0
230
1.0
 70
     8
 71
     3
 72
    26
 73
    22
 74
    20
 42
0.000000001
 43
0.0000000001
 44
0.00000001
 40
0.0
 40
0.0
 40
0.0
 40
0.0
 40
0.2898835720073262
 40
0.5877420162815573
 40
0.8917743817442937
 40
1.200150645254402
 40
1.542188279666681
 40
1.883739793584907
 40
2.217614803761892
 40
2.411454578022006
 40
2.609283220197299
 40
2.674619135876359
 40
2.747033361615042
 40
2.824047380842575
 40
2.903194894208219
 40
2.979868496217564
 40
3.041405060798847
 40
3.088724188382772
 40
3.126004857284496
 40
3.149241145721704
 40
3.159294256455154
 40
3.159294256455154
 40
3.159294256455154
 40
3.159294256455154
 10
156.1650321443052
 20
131.2891995411144
 30
0.0
 10
156.261642872274
 20
131.2910986219968
 30
0.0
 10
156.4575221474091
 20
131.2949490428824
 30
0.0
 10
156.7545967258319
 20
131.305654520436
 30
0.0
 10
157.0577640980204
 20
131.3180533835109
 30
0.0
 10
157.3756270769144
 20
131.3315425019172
 30
0.0
 10
157.7060385928268
 20
131.344296987666
 30
0.0
 10
158.0450602655316
 20
131.3540634320927
 30
0.0
 10
158.3348164073544
 20
131.3576867983019
 30
0.0
 10
158.5766670479053
 20
131.3559214360102
 30
0.0
 10
158.7289639492949
 20
131.351880438762
 30
0.0
 10
158.8407155615699
 20
131.3469335512605
 30
0.0
 10
158.9121974939308
 20
131.3430084830722
 30
0.0
 10
158.9882160912092
 20
131.3378210939223
 30
0.0
 10
159.0655494159854
 20
131.3312274771911
 30
0.0
 10
159.1376112585942
 20
131.3235740627676
 30
0.0
 10
159.1988976789792
 20
131.3153790845395
 30
0.0
 10
159.2470601223504
 20
131.3077436187128
 30
0.0
 10
159.2821405547508
 20
131.300271199258
 30
0.0
 10
159.3053038405135
 20
131.2953209757835
 30
0.0
 10
159.3153771680622
 20
131.29061937739
 30
0.0
 10
159.3184192284327
 20
131.2891995411144
 30
0.0
 11
156.1650321443052
 21
131.2891995411144
 31
0.0
 11
156.4548433462665
 21
131.2956765006108
 31
0.0
 11
156.7525290686565
 21
131.3058186596439
 31
0.0
 11
157.0563144340247
 21
131.3180714550244
 31
0.0
 11
157.3644245649213
 21
131.3308803235633
 31
0.0
 11
157.7062201631455
 21
131.3437454846404
 31
0.0
 11
158.0476408193671
 21
131.3531991688664
 31
0.0
 11
158.3814955828366
 21
131.3568760295429
 31
0.0
 11
158.575329081623
 21
131.3553162790946
 31
0.0
 11
158.7730816799607
 21
131.3498316188546
 31
0.0
 11
158.8383530586056
 21
131.3469283440032
 31
0.0
 11
158.9106572299804
 21
131.3429374935422
 31
0.0
 11
158.9874899296007
 21
131.3376558819145
 31
0.0
 11
159.0663468929816
 21
131.3308803235634
 31
0.0
 11
159.1425785584046
 21
131.322659957263
 31
0.0
 11
159.2035676924713
 21
131.3144700673681
 31
0.0
 11
159.2502557804856
 21
131.3067679726407
 31
0.0
 11
159.2867763909553
 21
131.2992784284022
 31
0.0
 11
159.3092152302047
 21
131.2932432327389
 31
0.0
 11
159.3184192284327
 21
131.2891995411144
 31
0.0
  0
DIMENSION
  5
257
330
1F
100
AcDbEntity
  8
1
100
AcDbDimension
  2
*D3
 10
59.16875473980707
 20
125.7888648865113
 30
0.0
 11
55.51875473980709
 21
156.0388648865113
 31
0.0
 70
    32
  1
<>
 71
     5
 42
-1.0
 53
90.0
  3
ME10_DIM_10
100
AcDbAlignedDimension
 13
71.41875473980707
 23
186.2888648865113
 33
0.0
 14
69.16875473980707
 24
125.7888648865113
 34
0.0
 50
90.0
100
AcDbRotatedDimension
  0
DIMENSION
  5
262
330
1F
100
AcDbEntity
  8
1
100
AcDbDimension
  2
*D4
 10
138.3187538830358
 20
196.2888648865113
 30
0.0
 11
147.3187538830358
 21
199.7888648865113
 31
0.0
 70
    32
  1
PG11
 71
     5
 42
-1.0
 53
0.00013888888889
  3
ME10_DIM_11
100
AcDbAlignedDimension
 13
156.3187538830358
 23
186.2921896467144
 33
0.0
 14
138.3187538830358
 24
186.2921896467144
 34
0.0
100
AcDbRotatedDimension
  0
DIMENSION
  5
26D
330
1F
100
AcDbEntity
  8
1
100
AcDbDimension
  2
*D5
 10
69.16875473980707
 20
110.7888648865113
 30
0.0
 11
82.66875473980707
 21
114.2888648865113
 31
0.0
 70
    32
  1
<>
 71
     5
 42
-1.0
 53
0.00013888888889
  3
ME10_DIM_12
100
AcDbAlignedDimension
 13
96.16875473980707
 23
125.7888648865113
 33
0.0
 14
69.16875473980707
 24
125.7888648865113
 34
0.0
100
AcDbRotatedDimension
  0
DIMENSION
  5
278
330
1F
100
AcDbEntity
  8
1
100
AcDbDimension
  2
*D6
 10
130.5687538830358
 20
110.7888648865113
 30
0.0
 11
147.3187538830358
 21
114.4388648865113
 31
0.0
 70
    32
  1
<>
 71
     5
 42
-1.0
 53
0.00013888888889
  3
ME10_DIM_13
100
AcDbAlignedDimension
 13
164.0687538830358
 23
134.1976348618867
 33
0.0
 14
130.5687538830358
 24
134.1976348618867
 34
0.0
100
AcDbRotatedDimension
  0
ENDSEC
  0
SECTION
  2
OBJECTS
  0
DICTIONARY
  5
C
330
0
100
AcDbDictionary
281
     1
  3
ACAD_GROUP
350
D
  3
ACAD_LAYOUT
350
1A
  3
ACAD_MATERIAL
350
3B
  3
ACAD_MLEADERSTYLE
350
27B
  3
ACAD_MLINESTYLE
350
17
  3
ACAD_PLOTSETTINGS
350
19
  3
ACAD_PLOTSTYLENAME
350
E
  3
ACAD_VISUALSTYLE
350
2A
  3
AcDbVariableDictionary
350
279
  0
DICTIONARY
  5
D
102
{ACAD_REACTORS
330
C
102
}
330
C
100
AcDbDictionary
281
     1
  0
DICTIONARY
  5
1A
102
{ACAD_REACTORS
330
C
102
}
330
C
100
AcDbDictionary
281
     1
  3
Layout1
350
1E
  3
Layout2
350
26
  3
Model
350
22
  0
DICTIONARY
  5
3B
102
{ACAD_REACTORS
330
C
102
}
330
C
100
AcDbDictionary
281
     1
  3
ByBlock
350
3D
  3
ByLayer
350
3C
  3
Global
350
3E
  0
DICTIONARY
  5
27B
102
{ACAD_REACTORS
330
C
102
}
330
C
100
AcDbDictionary
281
     1
  0
DICTIONARY
  5
17
102
{ACAD_REACTORS
330
C
102
}
330
C
100
AcDbDictionary
281
     1
  3
Standard
350
18
  0
DICTIONARY
  5
19
102
{ACAD_REACTORS
330
C
102
}
330
C
100
AcDbDictionary
281
     1
  0
ACDBDICTIONARYWDFLT
  5
E
102
{ACAD_REACTORS
330
C
102
}
330
C
100
AcDbDictionary
281
     1
  3
Normal
350
F
100
AcDbDictionaryWithDefault
340
F
  0
DICTIONARY
  5
2A
102
{ACAD_REACTORS
330
C
102
}
330
C
100
AcDbDictionary
281
     1
  3
2dWireframe
350
2F
  3
3D Hidden
350
31
  3
3dWireframe
350
30
  3
Basic
350
32
  3
Brighten
350
36
  3
ColorChange
350
3A
  3
Conceptual
350
34
  3
Dim
350
35
  3
Facepattern
350
39
  3
Flat
350
2B
  3
FlatWithEdges
350
2C
  3
Gouraud
350
2D
  3
GouraudWithEdges
350
2E
  3
Linepattern
350
38
  3
Realistic
350
33
  3
Thicken
350
37
  0
DICTIONARY
  5
279
102
{ACAD_REACTORS
330
C
102
}
330
C
100
AcDbDictionary
281
     1
  3
DIMASSOC
350
27C
  3
HIDETEXT
350
27D
  0
LAYOUT
  5
1E
102
{ACAD_REACTORS
330
1A
102
}
330
1A
100
AcDbPlotSettings
  1

  2
none_device
  4

  6

 40
0.0
 41
0.0
 42
0.0
 43
0.0
 44
0.0
 45
0.0
 46
0.0
 47
0.0
 48
0.0
 49
0.0
140
0.0
141
0.0
142
1.0
143
1.0
 70
   688
 72
     0
 73
     0
 74
     5
  7

 75
    16
147
1.0
148
0.0
149
0.0
100
AcDbLayout
  1
Layout1
 70
     1
 71
     1
 10
0.0
 20
0.0
 11
12.0
 21
9.0
 12
0.0
 22
0.0
 32
0.0
 14
1.00000000000000E+20
 24
1.00000000000000E+20
 34
1.00000000000000E+20
 15
-1.00000000000000E+20
 25
-1.00000000000000E+20
 35
-1.00000000000000E+20
146
0.0
 13
0.0
 23
0.0
 33
0.0
 16
1.0
 26
0.0
 36
0.0
 17
0.0
 27
1.0
 37
0.0
 76
     0
330
1B
  0
LAYOUT
  5
26
102
{ACAD_REACTORS
330
1A
102
}
330
1A
100
AcDbPlotSettings
  1

  2
none_device
  4

  6

 40
0.0
 41
0.0
 42
0.0
 43
0.0
 44
0.0
 45
0.0
 46
0.0
 47
0.0
 48
0.0
 49
0.0
140
0.0
141
0.0
142
1.0
143
1.0
 70
   688
 72
     0
 73
     0
 74
     5
  7

 75
    16
147
1.0
148
0.0
149
0.0
100
AcDbLayout
  1
Layout2
 70
     1
 71
     2
 10
0.0
 20
0.0
 11
0.0
 21
0.0
 12
0.0
 22
0.0
 32
0.0
 14
0.0
 24
0.0
 34
0.0
 15
0.0
 25
0.0
 35
0.0
146
0.0
 13
0.0
 23
0.0
 33
0.0
 16
1.0
 26
0.0
 36
0.0
 17
0.0
 27
1.0
 37
0.0
 76
     0
330
23
  0
LAYOUT
  5
22
102
{ACAD_REACTORS
330
1A
102
}
330
1A
100
AcDbPlotSettings
  1

  2
none_device
  4

  6

 40
0.0
 41
0.0
 42
0.0
 43
0.0
 44
0.0
 45
0.0
 46
0.0
 47
0.0
 48
0.0
 49
0.0
140
0.0
141
0.0
142
1.0
143
1.0
 70
  1712
 72
     0
 73
     0
 74
     0
  7

 75
     0
147
1.0
148
0.0
149
0.0
100
AcDbLayout
  1
Model
 70
     1
 71
     0
 10
0.0
 20
0.0
 11
12.0
 21
9.0
 12
0.0
 22
0.0
 32
0.0
 14
0.0
 24
0.0
 34
0.0
 15
210.0000000000001
 25
297.0000000000001
 35
0.0
146
0.0
 13
0.0
 23
0.0
 33
0.0
 16
1.0
 26
0.0
 36
0.0
 17
0.0
 27
1.0
 37
0.0
 76
     0
330
1F
331
29
  0
MATERIAL
  5
3D
102
{ACAD_REACTORS
330
3B
102
}
102
{ACAD_XDICTIONARY
360
2A0
102
}
330
3B
100
AcDbMaterial
  1
ByBlock
  0
MATERIAL
  5
3C
102
{ACAD_REACTORS
330
3B
102
}
102
{ACAD_XDICTIONARY
360
29E
102
}
330
3B
100
AcDbMaterial
  1
ByLayer
  0
MATERIAL
  5
3E
102
{ACAD_REACTORS
330
3B
102
}
102
{ACAD_XDICTIONARY
360
2A2
102
}
330
3B
100
AcDbMaterial
  1
Global
  0
MLINESTYLE
  5
18
102
{ACAD_REACTORS
330
17
102
}
330
17
100
AcDbMlineStyle
  2
Standard
 70
     0
  3

 62
   256
 51
90.0
 52
90.0
 71
     2
 49
0.5
 62
   256
  6
BYLAYER
 49
-0.5
 62
   256
  6
BYLAYER
  0
ACDBPLACEHOLDER
  5
F
102
{ACAD_REACTORS
330
E
102
}
330
E
  0
VISUALSTYLE
  5
2F
102
{ACAD_REACTORS
330
2A
102
}
102
{ACAD_XDICTIONARY
360
286
102
}
330
2A
100
AcDbVisualStyle
  2
2dWireframe
 70
     4
 71
     0
 72
     2
 73
     0
 90
        0
 40
-0.6
 41
-30.0
 62
     5
 63
     7
 74
     1
 91
        4
 64
     7
 65
   257
 75
     1
175
     1
 42
1.0
 92
        0
 66
   257
 43
1.0
 76
     1
 77
     6
 78
     2
 67
     7
 79
     5
170
     0
171
     0
290
     0
174
     0
 93
        1
 44
0.0
173
     0
291
     0
 45
0.0
1001
ACAD
1000
AcDbSavedByObjectVersion
1070
     0
  0
VISUALSTYLE
  5
31
102
{ACAD_REACTORS
330
2A
102
}
102
{ACAD_XDICTIONARY
360
28A
102
}
330
2A
100
AcDbVisualStyle
  2
3D Hidden
 70
     6
 71
     1
 72
     2
 73
     2
 90
        0
 40
-0.6
 41
-30.0
 62
     5
 63
     7
 74
     2
 91
        2
 64
     7
 65
   257
 75
     2
175
     1
 42
40.0
 92
        0
 66
   257
 43
1.0
 76
     1
 77
     6
 78
     2
 67
     7
 79
     3
170
     0
171
     0
290
     0
174
     0
 93
        1
 44
0.0
173
     0
291
     0
 45
0.0
1001
ACAD
1000
AcDbSavedByObjectVersion
1070
     0
  0
VISUALSTYLE
  5
30
102
{ACAD_REACTORS
330
2A
102
}
102
{ACAD_XDICTIONARY
360
288
102
}
330
2A
100
AcDbVisualStyle
  2
3dWireframe
 70
     5
 71
     0
 72
     2
 73
     0
 90
        0
 40
-0.6
 41
-30.0
 62
     5
 63
     7
 74
     1
 91
        4
 64
     7
 65
   257
 75
     1
175
     1
 42
1.0
 92
        0
 66
   257
 43
1.0
 76
     1
 77
     6
 78
     2
 67
     7
 79
     5
170
     0
171
     0
290
     0
174
     0
 93
        1
 44
0.0
173
     0
291
     0
 45
0.0
1001
ACAD
1000
AcDbSavedByObjectVersion
1070
     0
  0
VISUALSTYLE
  5
32
102
{ACAD_REACTORS
330
2A
102
}
102
{ACAD_XDICTIONARY
360
28C
102
}
330
2A
100
AcDbVisualStyle
  2
Basic
 70
     7
 71
     1
 72
     0
 73
     1
 90
        0
 40
-0.6
 41
-30.0
 62
     5
 63
     7
 74
     0
 91
        4
 64
     7
 65
   257
 75
     1
175
     1
 42
1.0
 92
        8
 66
     7
 43
1.0
 76
     1
 77
     6
 78
     2
 67
     7
 79
     5
170
     0
171
     0
290
     0
174
     0
 93
        1
 44
0.0
173
     0
291
     1
 45
0.0
1001
ACAD
1000
AcDbSavedByObjectVersion
1070
     0
  0
VISUALSTYLE
  5
36
102
{ACAD_REACTORS
330
2A
102
}
102
{ACAD_XDICTIONARY
360
294
102
}
330
2A
100
AcDbVisualStyle
  2
Brighten
 70
    12
 71
     2
 72
     2
 73
     0
 90
        0
 40
-0.6
 41
-30.0
 62
     5
 63
     7
 74
     1
 91
        4
 64
     7
 65
   257
 75
     1
175
     1
 42
1.0
 92
        8
 66
     7
 43
1.0
 76
     1
 77
     6
 78
     2
 67
     7
 79
     5
170
     0
171
     0
290
     0
174
     0
 93
        1
 44
50.0
173
     0
291
     1
 45
0.0
1001
ACAD
1000
AcDbSavedByObjectVersion
1070
     0
  0
VISUALSTYLE
  5
3A
102
{ACAD_REACTORS
330
2A
102
}
102
{ACAD_XDICTIONARY
360
29C
102
}
330
2A
100
AcDbVisualStyle
  2
ColorChange
 70
    16
 71
     2
 72
     2
 73
     3
 90
        0
 40
-0.6
 41
-30.0
 62
     5
 63
     8
 74
     1
 91
        4
 64
     7
 65
   257
 75
     1
175
     1
 42
1.0
 92
        8
 66
     8
 43
1.0
 76
     1
 77
     6
 78
     2
 67
     7
 79
     5
170
     0
171
     0
290
     0
174
     0
 93
        1
 44
0.0
173
     0
291
     1
 45
0.0
1001
ACAD
1000
AcDbSavedByObjectVersion
1070
     0
  0
VISUALSTYLE
  5
34
102
{ACAD_REACTORS
330
2A
102
}
102
{ACAD_XDICTIONARY
360
290
102
}
330
2A
100
AcDbVisualStyle
  2
Conceptual
 70
     9
 71
     3
 72
     2
 73
     0
 90
        0
 40
-0.6
 41
-30.0
 62
     5
 63
     7
 74
     2
 91
        2
 64
     7
 65
   257
 75
     1
175
     1
 42
40.0
 92
        8
 66
     7
 43
1.0
 76
     1
 77
     6
 78
     2
 67
     7
 79
     3
170
     0
171
     0
290
     0
174
     0
 93
        1
 44
0.0
173
     0
291
     0
 45
0.0
1001
ACAD
1000
AcDbSavedByObjectVersion
1070
     0
  0
VISUALSTYLE
  5
35
102
{ACAD_REACTORS
330
2A
102
}
102
{ACAD_XDICTIONARY
360
292
102
}
330
2A
100
AcDbVisualStyle
  2
Dim
 70
    11
 71
     2
 72
     2
 73
     0
 90
        0
 40
-0.6
 41
-30.0
 62
     5
 63
     7
 74
     1
 91
        4
 64
     7
 65
   257
 75
     1
175
     1
 42
1.0
 92
        8
 66
     7
 43
1.0
 76
     1
 77
     6
 78
     2
 67
     7
 79
     5
170
     0
171
     0
290
     0
174
     0
 93
        1
 44
-50.0
173
     0
291
     1
 45
0.0
1001
ACAD
1000
AcDbSavedByObjectVersion
1070
     0
  0
VISUALSTYLE
  5
39
102
{ACAD_REACTORS
330
2A
102
}
102
{ACAD_XDICTIONARY
360
29A
102
}
330
2A
100
AcDbVisualStyle
  2
Facepattern
 70
    15
 71
     2
 72
     2
 73
     0
 90
        0
 40
-0.6
 41
-30.0
 62
     5
 63
     7
 74
     1
 91
        4
 64
     7
 65
   257
 75
     1
175
     1
 42
1.0
 92
        8
 66
     7
 43
1.0
 76
     1
 77
     6
 78
     2
 67
     7
 79
     5
170
     0
171
     0
290
     0
174
     0
 93
        1
 44
0.0
173
     0
291
     1
 45
0.0
1001
ACAD
1000
AcDbSavedByObjectVersion
1070
     0
  0
VISUALSTYLE
  5
2B
102
{ACAD_REACTORS
330
2A
102
}
102
{ACAD_XDICTIONARY
360
27E
102
}
330
2A
100
AcDbVisualStyle
  2
Flat
 70
     0
 71
     2
 72
     1
 73
     1
 90
        2
 40
-0.6
 41
30.0
 62
     5
 63
     7
 74
     0
 91
        4
 64
     7
 65
   257
 75
     1
175
     1
 42
1.0
 92
        8
 66
     7
 43
1.0
 76
     1
 77
     6
 78
     2
 67
     7
 79
     5
170
     0
171
     0
290
     0
174
     0
 93
       13
 44
0.0
173
     0
291
     1
 45
0.0
1001
ACAD
1000
AcDbSavedByObjectVersion
1070
     0
  0
VISUALSTYLE
  5
2C
102
{ACAD_REACTORS
330
2A
102
}
102
{ACAD_XDICTIONARY
360
280
102
}
330
2A
100
AcDbVisualStyle
  2
FlatWithEdges
 70
     1
 71
     2
 72
     1
 73
     1
 90
        2
 40
-0.6
 41
30.0
 62
     5
 63
     7
 74
     1
 91
        4
 64
     7
 65
   257
 75
     1
175
     1
 42
1.0
 92
        0
 66
   257
 43
1.0
 76
     1
 77
     6
 78
     2
 67
     7
 79
     5
170
     0
171
     0
290
     0
174
     0
 93
       13
 44
0.0
173
     0
291
     1
 45
0.0
1001
ACAD
1000
AcDbSavedByObjectVersion
1070
     0
  0
VISUALSTYLE
  5
2D
102
{ACAD_REACTORS
330
2A
102
}
102
{ACAD_XDICTIONARY
360
282
102
}
330
2A
100
AcDbVisualStyle
  2
Gouraud
 70
     2
 71
     2
 72
     2
 73
     1
 90
        2
 40
-0.6
 41
30.0
 62
     5
 63
     7
 74
     0
 91
        4
 64
     7
 65
   257
 75
     1
175
     1
 42
1.0
 92
        0
 66
     7
 43
1.0
 76
     1
 77
     6
 78
     2
 67
     7
 79
     5
170
     0
171
     0
290
     0
174
     0
 93
       13
 44
0.0
173
     0
291
     1
 45
0.0
1001
ACAD
1000
AcDbSavedByObjectVersion
1070
     0
  0
VISUALSTYLE
  5
2E
102
{ACAD_REACTORS
330
2A
102
}
102
{ACAD_XDICTIONARY
360
284
102
}
330
2A
100
AcDbVisualStyle
  2
GouraudWithEdges
 70
     3
 71
     2
 72
     2
 73
     1
 90
        2
 40
-0.6
 41
30.0
 62
     5
 63
     7
 74
     1
 91
        4
 64
     7
 65
   257
 75
     1
175
     1
 42
1.0
 92
        0
 66
   257
 43
1.0
 76
     1
 77
     6
 78
     2
 67
     7
 79
     5
170
     0
171
     0
290
     0
174
     0
 93
       13
 44
0.0
173
     0
291
     1
 45
0.0
1001
ACAD
1000
AcDbSavedByObjectVersion
1070
     0
  0
VISUALSTYLE
  5
38
102
{ACAD_REACTORS
330
2A
102
}
102
{ACAD_XDICTIONARY
360
298
102
}
330
2A
100
AcDbVisualStyle
  2
Linepattern
 70
    14
 71
     2
 72
     2
 73
     0
 90
        0
 40
-0.6
 41
-30.0
 62
     5
 63
     7
 74
     1
 91
        4
 64
     7
 65
   257
 75
     7
175
     7
 42
1.0
 92
        8
 66
     7
 43
1.0
 76
     1
 77
     6
 78
     2
 67
     7
 79
     5
170
     0
171
     0
290
     0
174
     0
 93
        1
 44
0.0
173
     0
291
     1
 45
0.0
1001
ACAD
1000
AcDbSavedByObjectVersion
1070
     0
  0
VISUALSTYLE
  5
33
102
{ACAD_REACTORS
330
2A
102
}
102
{ACAD_XDICTIONARY
360
28E
102
}
330
2A
100
AcDbVisualStyle
  2
Realistic
 70
     8
 71
     2
 72
     2
 73
     0
 90
        0
 40
-0.6
 41
-30.0
 62
     5
 63
     7
 74
     1
 91
        0
 64
     7
 65
   257
 75
     1
175
     1
 42
1.0
 92
        8
 66
     8
 43
1.0
 76
     1
 77
     6
 78
     2
 67
     7
 79
     5
170
     0
171
     0
290
     0
174
     0
 93
       13
 44
0.0
173
     0
291
     0
 45
0.0
1001
ACAD
1000
AcDbSavedByObjectVersion
1070
     0
  0
VISUALSTYLE
  5
37
102
{ACAD_REACTORS
330
2A
102
}
102
{ACAD_XDICTIONARY
360
296
102
}
330
2A
100
AcDbVisualStyle
  2
Thicken
 70
    13
 71
     2
 72
     2
 73
     0
 90
        0
 40
-0.6
 41
-30.0
 62
     5
 63
     7
 74
     1
 91
        4
 64
     7
 65
   257
 75
     1
175
     1
 42
1.0
 92
       12
 66
     7
 43
1.0
 76
     1
 77
     6
 78
     2
 67
     7
 79
     5
170
     0
171
     0
290
     0
174
     0
 93
        1
 44
0.0
173
     0
291
     1
 45
0.0
1001
ACAD
1000
AcDbSavedByObjectVersion
1070
     0
  0
DICTIONARYVAR
  5
27C
102
{ACAD_REACTORS
330
279
102
}
330
279
100
DictionaryVariables
280
     0
  1
2
  0
DICTIONARYVAR
  5
27D
102
{ACAD_REACTORS
330
279
102
}
330
279
100
DictionaryVariables
280
     0
  1
1
  0
DICTIONARY
  5
2A0
330
3D
100
AcDbDictionary
280
     1
281
     1
  3
ACAD_XREC_ROUNDTRIP
360
2A1
  0
DICTIONARY
  5
29E
330
3C
100
AcDbDictionary
280
     1
281
     1
  3
ACAD_XREC_ROUNDTRIP
360
29F
  0
DICTIONARY
  5
2A2
330
3E
100
AcDbDictionary
280
     1
281
     1
  3
ACAD_XREC_ROUNDTRIP
360
2A3
  0
DICTIONARY
  5
286
330
2F
100
AcDbDictionary
280
     1
281
     1
  3
ACAD_XREC_ROUNDTRIP
360
287
  0
DICTIONARY
  5
28A
330
31
100
AcDbDictionary
280
     1
281
     1
  3
ACAD_XREC_ROUNDTRIP
360
28B
  0
DICTIONARY
  5
288
330
30
100
AcDbDictionary
280
     1
281
     1
  3
ACAD_XREC_ROUNDTRIP
360
289
  0
DICTIONARY
  5
28C
330
32
100
AcDbDictionary
280
     1
281
     1
  3
ACAD_XREC_ROUNDTRIP
360
28D
  0
DICTIONARY
  5
294
330
36
100
AcDbDictionary
280
     1
281
     1
  3
ACAD_XREC_ROUNDTRIP
360
295
  0
DICTIONARY
  5
29C
330
3A
100
AcDbDictionary
280
     1
281
     1
  3
ACAD_XREC_ROUNDTRIP
360
29D
  0
DICTIONARY
  5
290
330
34
100
AcDbDictionary
280
     1
281
     1
  3
ACAD_XREC_ROUNDTRIP
360
291
  0
DICTIONARY
  5
292
330
35
100
AcDbDictionary
280
     1
281
     1
  3
ACAD_XREC_ROUNDTRIP
360
293
  0
DICTIONARY
  5
29A
330
39
100
AcDbDictionary
280
     1
281
     1
  3
ACAD_XREC_ROUNDTRIP
360
29B
  0
DICTIONARY
  5
27E
330
2B
100
AcDbDictionary
280
     1
281
     1
  3
ACAD_XREC_ROUNDTRIP
360
27F
  0
DICTIONARY
  5
280
330
2C
100
AcDbDictionary
280
     1
281
     1
  3
ACAD_XREC_ROUNDTRIP
360
281
  0
DICTIONARY
  5
282
330
2D
100
AcDbDictionary
280
     1
281
     1
  3
ACAD_XREC_ROUNDTRIP
360
283
  0
DICTIONARY
  5
284
330
2E
100
AcDbDictionary
280
     1
281
     1
  3
ACAD_XREC_ROUNDTRIP
360
285
  0
DICTIONARY
  5
298
330
38
100
AcDbDictionary
280
     1
281
     1
  3
ACAD_XREC_ROUNDTRIP
360
299
  0
DICTIONARY
  5
28E
330
33
100
AcDbDictionary
280
     1
281
     1
  3
ACAD_XREC_ROUNDTRIP
360
28F
  0
DICTIONARY
  5
296
330
37
100
AcDbDictionary
280
     1
281
     1
  3
ACAD_XREC_ROUNDTRIP
360
297
  0
XRECORD
  5
2A1
102
{ACAD_REACTORS
330
2A0
102
}
330
2A0
100
AcDbXrecord
280
     1
102
MATERIAL
148
0.0
149
0.0
149
0.0
 93
        0
 94
      127
282
     0
 72
     1
 77
     1
171
     1
175
     1
179
     1
273
     0
  0
XRECORD
  5
29F
102
{ACAD_REACTORS
330
29E
102
}
330
29E
100
AcDbXrecord
280
     1
102
MATERIAL
148
0.0
149
0.0
149
0.0
 93
        0
 94
      127
282
     0
 72
     1
 77
     1
171
     1
175
     1
179
     1
273
     0
  0
XRECORD
  5
2A3
102
{ACAD_REACTORS
330
2A2
102
}
330
2A2
100
AcDbXrecord
280
     1
102
MATERIAL
148
0.0
149
0.0
149
0.0
 93
        0
 94
      127
282
     0
 72
     1
 77
     1
171
     1
175
     1
179
     1
273
     0
  0
XRECORD
  5
287
102
{ACAD_REACTORS
330
286
102
}
330
286
100
AcDbXrecord
280
     1
102
RTVSPropertyOp0
 70
     1
102
RTVSPropertyOp1
 70
     1
102
RTVSPropertyOp2
 70
     1
102
RTVSPropertyOp3
 70
     1
102
RTVSPropertyOp4
 70
     1
102
RTVSPropertyOp5
 70
     1
102
RTVSPropertyOp6
 70
     1
102
RTVSPropertyOp7
 70
     1
102
RTVSPropertyOp8
 70
     1
102
RTVSPropertyOp9
 70
     1
102
RTVSPropertyOp10
 70
     1
102
RTVSPropertyOp11
 70
     1
102
RTVSPropertyOp12
 70
     1
102
RTVSPropertyOp13
 70
     1
102
RTVSPropertyOp14
 70
     1
102
RTVSPropertyOp15
 70
     1
102
RTVSPropertyOp16
 70
     1
102
RTVSPropertyOp17
 70
     1
102
RTVSPropertyOp18
 70
     1
102
RTVSPropertyOp19
 70
     1
102
RTVSPropertyOp20
 70
     1
102
RTVSPropertyOp21
 70
     1
102
RTVSPropertyOp22
 70
     1
102
RTVSPropertyOp23
 70
     1
102
RTVSPropertyOp24
 70
     1
102
RTVSPropertyOp25
 70
     1
102
RTVSPropertyOp26
 70
     1
102
RTVSPropertyOp27
 70
     1
102
RTVSPropertyOp28
 70
     1
102
RTVSPropertyOp29
 70
     1
102
RTVSPropertyOp30
 70
     1
102
RTVSPropertyOp31
 70
     1
102
RTVSPropertyOp32
 70
     1
  0
XRECORD
  5
28B
102
{ACAD_REACTORS
330
28A
102
}
330
28A
100
AcDbXrecord
280
     1
102
RTVSPropertyOp0
 70
     1
102
RTVSPropertyOp1
 70
     1
102
RTVSPropertyOp2
 70
     1
102
RTVSPropertyOp3
 70
     1
102
RTVSPropertyOp4
 70
     1
102
RTVSPropertyOp5
 70
     1
102
RTVSPropertyOp6
 70
     1
102
RTVSPropertyOp7
 70
     1
102
RTVSPropertyOp8
 70
     1
102
RTVSPropertyOp9
 70
     1
102
RTVSPropertyOp10
 70
     1
102
RTVSPropertyOp11
 70
     1
102
RTVSPropertyOp12
 70
     1
102
RTVSPropertyOp13
 70
     1
102
RTVSPropertyOp14
 70
     1
102
RTVSPropertyOp15
 70
     1
102
RTVSPropertyOp16
 70
     1
102
RTVSPropertyOp17
 70
     1
102
RTVSPropertyOp18
 70
     1
102
RTVSPropertyOp19
 70
     1
102
RTVSPropertyOp20
 70
     1
102
RTVSPropertyOp21
 70
     1
102
RTVSPropertyOp22
 70
     1
102
RTVSPropertyOp23
 70
     1
102
RTVSPropertyOp24
 70
     1
102
RTVSPropertyOp25
 70
     1
102
RTVSPropertyOp26
 70
     1
102
RTVSPropertyOp27
 70
     1
102
RTVSPropertyOp28
 70
     1
102
RTVSPropertyOp29
 70
     1
102
RTVSPropertyOp30
 70
     1
102
RTVSPropertyOp31
 70
     1
102
RTVSPropertyOp32
 70
     1
  0
XRECORD
  5
289
102
{ACAD_REACTORS
330
288
102
}
330
288
100
AcDbXrecord
280
     1
102
RTVSPropertyOp0
 70
     1
102
RTVSPropertyOp1
 70
     1
102
RTVSPropertyOp2
 70
     1
102
RTVSPropertyOp3
 70
     1
102
RTVSPropertyOp4
 70
     1
102
RTVSPropertyOp5
 70
     1
102
RTVSPropertyOp6
 70
     1
102
RTVSPropertyOp7
 70
     1
102
RTVSPropertyOp8
 70
     1
102
RTVSPropertyOp9
 70
     1
102
RTVSPropertyOp10
 70
     1
102
RTVSPropertyOp11
 70
     1
102
RTVSPropertyOp12
 70
     1
102
RTVSPropertyOp13
 70
     1
102
RTVSPropertyOp14
 70
     1
102
RTVSPropertyOp15
 70
     1
102
RTVSPropertyOp16
 70
     1
102
RTVSPropertyOp17
 70
     1
102
RTVSPropertyOp18
 70
     1
102
RTVSPropertyOp19
 70
     1
102
RTVSPropertyOp20
 70
     1
102
RTVSPropertyOp21
 70
     1
102
RTVSPropertyOp22
 70
     1
102
RTVSPropertyOp23
 70
     1
102
RTVSPropertyOp24
 70
     1
102
RTVSPropertyOp25
 70
     1
102
RTVSPropertyOp26
 70
     1
102
RTVSPropertyOp27
 70
     1
102
RTVSPropertyOp28
 70
     1
102
RTVSPropertyOp29
 70
     1
102
RTVSPropertyOp30
 70
     1
102
RTVSPropertyOp31
 70
     1
102
RTVSPropertyOp32
 70
     1
  0
XRECORD
  5
28D
102
{ACAD_REACTORS
330
28C
102
}
330
28C
100
AcDbXrecord
280
     1
102
RTVSPropertyOp0
 70
     1
102
RTVSPropertyOp1
 70
     1
102
RTVSPropertyOp2
 70
     1
102
RTVSPropertyOp3
 70
     1
102
RTVSPropertyOp4
 70
     1
102
RTVSPropertyOp5
 70
     1
102
RTVSPropertyOp6
 70
     1
102
RTVSPropertyOp7
 70
     1
102
RTVSPropertyOp8
 70
     1
102
RTVSPropertyOp9
 70
     1
102
RTVSPropertyOp10
 70
     1
102
RTVSPropertyOp11
 70
     1
102
RTVSPropertyOp12
 70
     1
102
RTVSPropertyOp13
 70
     1
102
RTVSPropertyOp14
 70
     1
102
RTVSPropertyOp15
 70
     1
102
RTVSPropertyOp16
 70
     1
102
RTVSPropertyOp17
 70
     1
102
RTVSPropertyOp18
 70
     1
102
RTVSPropertyOp19
 70
     1
102
RTVSPropertyOp20
 70
     1
102
RTVSPropertyOp21
 70
     1
102
RTVSPropertyOp22
 70
     1
102
RTVSPropertyOp23
 70
     1
102
RTVSPropertyOp24
 70
     1
102
RTVSPropertyOp25
 70
     1
102
RTVSPropertyOp26
 70
     1
102
RTVSPropertyOp27
 70
     1
102
RTVSPropertyOp28
 70
     1
102
RTVSPropertyOp29
 70
     1
102
RTVSPropertyOp30
 70
     1
102
RTVSPropertyOp31
 70
     1
102
RTVSPropertyOp32
 70
     1
  0
XRECORD
  5
295
102
{ACAD_REACTORS
330
294
102
}
330
294
100
AcDbXrecord
280
     1
102
RTVSPropertyOp0
 70
     1
102
RTVSPropertyOp1
 70
     1
102
RTVSPropertyOp2
 70
     1
102
RTVSPropertyOp3
 70
     1
102
RTVSPropertyOp4
 70
     1
102
RTVSPropertyOp5
 70
     1
102
RTVSPropertyOp6
 70
     1
102
RTVSPropertyOp7
 70
     1
102
RTVSPropertyOp8
 70
     1
102
RTVSPropertyOp9
 70
     1
102
RTVSPropertyOp10
 70
     1
102
RTVSPropertyOp11
 70
     1
102
RTVSPropertyOp12
 70
     1
102
RTVSPropertyOp13
 70
     1
102
RTVSPropertyOp14
 70
     1
102
RTVSPropertyOp15
 70
     1
102
RTVSPropertyOp16
 70
     1
102
RTVSPropertyOp17
 70
     1
102
RTVSPropertyOp18
 70
     1
102
RTVSPropertyOp19
 70
     1
102
RTVSPropertyOp20
 70
     1
102
RTVSPropertyOp21
 70
     1
102
RTVSPropertyOp22
 70
     1
102
RTVSPropertyOp23
 70
     1
102
RTVSPropertyOp24
 70
     1
102
RTVSPropertyOp25
 70
     1
102
RTVSPropertyOp26
 70
     1
102
RTVSPropertyOp27
 70
     1
102
RTVSPropertyOp28
 70
     1
102
RTVSPropertyOp29
 70
     1
102
RTVSPropertyOp30
 70
     1
102
RTVSPropertyOp31
 70
     1
102
RTVSPropertyOp32
 70
     1
  0
XRECORD
  5
29D
102
{ACAD_REACTORS
330
29C
102
}
330
29C
100
AcDbXrecord
280
     1
102
RTVSPropertyOp0
 70
     1
102
RTVSPropertyOp1
 70
     1
102
RTVSPropertyOp2
 70
     1
102
RTVSPropertyOp3
 70
     1
102
RTVSPropertyOp4
 70
     1
102
RTVSPropertyOp5
 70
     1
102
RTVSPropertyOp6
 70
     1
102
RTVSPropertyOp7
 70
     1
102
RTVSPropertyOp8
 70
     1
102
RTVSPropertyOp9
 70
     1
102
RTVSPropertyOp10
 70
     1
102
RTVSPropertyOp11
 70
     1
102
RTVSPropertyOp12
 70
     1
102
RTVSPropertyOp13
 70
     1
102
RTVSPropertyOp14
 70
     1
102
RTVSPropertyOp15
 70
     1
102
RTVSPropertyOp16
 70
     1
102
RTVSPropertyOp17
 70
     1
102
RTVSPropertyOp18
 70
     1
102
RTVSPropertyOp19
 70
     1
102
RTVSPropertyOp20
 70
     1
102
RTVSPropertyOp21
 70
     1
102
RTVSPropertyOp22
 70
     1
102
RTVSPropertyOp23
 70
     1
102
RTVSPropertyOp24
 70
     1
102
RTVSPropertyOp25
 70
     1
102
RTVSPropertyOp26
 70
     1
102
RTVSPropertyOp27
 70
     1
102
RTVSPropertyOp28
 70
     1
102
RTVSPropertyOp29
 70
     1
102
RTVSPropertyOp30
 70
     1
102
RTVSPropertyOp31
 70
     1
102
RTVSPropertyOp32
 70
     1
  0
XRECORD
  5
291
102
{ACAD_REACTORS
330
290
102
}
330
290
100
AcDbXrecord
280
     1
102
RTVSPropertyOp0
 70
     1
102
RTVSPropertyOp1
 70
     1
102
RTVSPropertyOp2
 70
     1
102
RTVSPropertyOp3
 70
     1
102
RTVSPropertyOp4
 70
     1
102
RTVSPropertyOp5
 70
     1
102
RTVSPropertyOp6
 70
     1
102
RTVSPropertyOp7
 70
     1
102
RTVSPropertyOp8
 70
     1
102
RTVSPropertyOp9
 70
     1
102
RTVSPropertyOp10
 70
     1
102
RTVSPropertyOp11
 70
     1
102
RTVSPropertyOp12
 70
     1
102
RTVSPropertyOp13
 70
     1
102
RTVSPropertyOp14
 70
     1
102
RTVSPropertyOp15
 70
     1
102
RTVSPropertyOp16
 70
     1
102
RTVSPropertyOp17
 70
     1
102
RTVSPropertyOp18
 70
     1
102
RTVSPropertyOp19
 70
     1
102
RTVSPropertyOp20
 70
     1
102
RTVSPropertyOp21
 70
     1
102
RTVSPropertyOp22
 70
     1
102
RTVSPropertyOp23
 70
     1
102
RTVSPropertyOp24
 70
     1
102
RTVSPropertyOp25
 70
     1
102
RTVSPropertyOp26
 70
     1
102
RTVSPropertyOp27
 70
     1
102
RTVSPropertyOp28
 70
     1
102
RTVSPropertyOp29
 70
     1
102
RTVSPropertyOp30
 70
     1
102
RTVSPropertyOp31
 70
     1
102
RTVSPropertyOp32
 70
     1
  0
XRECORD
  5
293
102
{ACAD_REACTORS
330
292
102
}
330
292
100
AcDbXrecord
280
     1
102
RTVSPropertyOp0
 70
     1
102
RTVSPropertyOp1
 70
     1
102
RTVSPropertyOp2
 70
     1
102
RTVSPropertyOp3
 70
     1
102
RTVSPropertyOp4
 70
     1
102
RTVSPropertyOp5
 70
     1
102
RTVSPropertyOp6
 70
     1
102
RTVSPropertyOp7
 70
     1
102
RTVSPropertyOp8
 70
     1
102
RTVSPropertyOp9
 70
     1
102
RTVSPropertyOp10
 70
     1
102
RTVSPropertyOp11
 70
     1
102
RTVSPropertyOp12
 70
     1
102
RTVSPropertyOp13
 70
     1
102
RTVSPropertyOp14
 70
     1
102
RTVSPropertyOp15
 70
     1
102
RTVSPropertyOp16
 70
     1
102
RTVSPropertyOp17
 70
     1
102
RTVSPropertyOp18
 70
     1
102
RTVSPropertyOp19
 70
     1
102
RTVSPropertyOp20
 70
     1
102
RTVSPropertyOp21
 70
     1
102
RTVSPropertyOp22
 70
     1
102
RTVSPropertyOp23
 70
     1
102
RTVSPropertyOp24
 70
     1
102
RTVSPropertyOp25
 70
     1
102
RTVSPropertyOp26
 70
     1
102
RTVSPropertyOp27
 70
     1
102
RTVSPropertyOp28
 70
     1
102
RTVSPropertyOp29
 70
     1
102
RTVSPropertyOp30
 70
     1
102
RTVSPropertyOp31
 70
     1
102
RTVSPropertyOp32
 70
     1
  0
XRECORD
  5
29B
102
{ACAD_REACTORS
330
29A
102
}
330
29A
100
AcDbXrecord
280
     1
102
RTVSPropertyOp0
 70
     1
102
RTVSPropertyOp1
 70
     1
102
RTVSPropertyOp2
 70
     1
102
RTVSPropertyOp3
 70
     1
102
RTVSPropertyOp4
 70
     1
102
RTVSPropertyOp5
 70
     1
102
RTVSPropertyOp6
 70
     1
102
RTVSPropertyOp7
 70
     1
102
RTVSPropertyOp8
 70
     1
102
RTVSPropertyOp9
 70
     1
102
RTVSPropertyOp10
 70
     1
102
RTVSPropertyOp11
 70
     1
102
RTVSPropertyOp12
 70
     1
102
RTVSPropertyOp13
 70
     1
102
RTVSPropertyOp14
 70
     1
102
RTVSPropertyOp15
 70
     1
102
RTVSPropertyOp16
 70
     1
102
RTVSPropertyOp17
 70
     1
102
RTVSPropertyOp18
 70
     1
102
RTVSPropertyOp19
 70
     1
102
RTVSPropertyOp20
 70
     1
102
RTVSPropertyOp21
 70
     1
102
RTVSPropertyOp22
 70
     1
102
RTVSPropertyOp23
 70
     1
102
RTVSPropertyOp24
 70
     1
102
RTVSPropertyOp25
 70
     1
102
RTVSPropertyOp26
 70
     1
102
RTVSPropertyOp27
 70
     1
102
RTVSPropertyOp28
 70
     1
102
RTVSPropertyOp29
 70
     1
102
RTVSPropertyOp30
 70
     1
102
RTVSPropertyOp31
 70
     1
102
RTVSPropertyOp32
 70
     1
  0
XRECORD
  5
27F
102
{ACAD_REACTORS
330
27E
102
}
330
27E
100
AcDbXrecord
280
     1
102
RTVSPropertyOp0
 70
     1
102
RTVSPropertyOp1
 70
     1
102
RTVSPropertyOp2
 70
     1
102
RTVSPropertyOp3
 70
     1
102
RTVSPropertyOp4
 70
     1
102
RTVSPropertyOp5
 70
     1
102
RTVSPropertyOp6
 70
     1
102
RTVSPropertyOp7
 70
     1
102
RTVSPropertyOp8
 70
     1
102
RTVSPropertyOp9
 70
     1
102
RTVSPropertyOp10
 70
     1
102
RTVSPropertyOp11
 70
     1
102
RTVSPropertyOp12
 70
     1
102
RTVSPropertyOp13
 70
     1
102
RTVSPropertyOp14
 70
     1
102
RTVSPropertyOp15
 70
     1
102
RTVSPropertyOp16
 70
     1
102
RTVSPropertyOp17
 70
     1
102
RTVSPropertyOp18
 70
     1
102
RTVSPropertyOp19
 70
     1
102
RTVSPropertyOp20
 70
     1
102
RTVSPropertyOp21
 70
     1
102
RTVSPropertyOp22
 70
     1
102
RTVSPropertyOp23
 70
     1
102
RTVSPropertyOp24
 70
     1
102
RTVSPropertyOp25
 70
     1
102
RTVSPropertyOp26
 70
     1
102
RTVSPropertyOp27
 70
     1
102
RTVSPropertyOp28
 70
     1
102
RTVSPropertyOp29
 70
     1
102
RTVSPropertyOp30
 70
     1
102
RTVSPropertyOp31
 70
     1
102
RTVSPropertyOp32
 70
     1
  0
XRECORD
  5
281
102
{ACAD_REACTORS
330
280
102
}
330
280
100
AcDbXrecord
280
     1
102
RTVSPropertyOp0
 70
     1
102
RTVSPropertyOp1
 70
     1
102
RTVSPropertyOp2
 70
     1
102
RTVSPropertyOp3
 70
     1
102
RTVSPropertyOp4
 70
     1
102
RTVSPropertyOp5
 70
     1
102
RTVSPropertyOp6
 70
     1
102
RTVSPropertyOp7
 70
     1
102
RTVSPropertyOp8
 70
     1
102
RTVSPropertyOp9
 70
     1
102
RTVSPropertyOp10
 70
     1
102
RTVSPropertyOp11
 70
     1
102
RTVSPropertyOp12
 70
     1
102
RTVSPropertyOp13
 70
     1
102
RTVSPropertyOp14
 70
     1
102
RTVSPropertyOp15
 70
     1
102
RTVSPropertyOp16
 70
     1
102
RTVSPropertyOp17
 70
     1
102
RTVSPropertyOp18
 70
     1
102
RTVSPropertyOp19
 70
     1
102
RTVSPropertyOp20
 70
     1
102
RTVSPropertyOp21
 70
     1
102
RTVSPropertyOp22
 70
     1
102
RTVSPropertyOp23
 70
     1
102
RTVSPropertyOp24
 70
     1
102
RTVSPropertyOp25
 70
     1
102
RTVSPropertyOp26
 70
     1
102
RTVSPropertyOp27
 70
     1
102
RTVSPropertyOp28
 70
     1
102
RTVSPropertyOp29
 70
     1
102
RTVSPropertyOp30
 70
     1
102
RTVSPropertyOp31
 70
     1
102
RTVSPropertyOp32
 70
     1
  0
XRECORD
  5
283
102
{ACAD_REACTORS
330
282
102
}
330
282
100
AcDbXrecord
280
     1
102
RTVSPropertyOp0
 70
     1
102
RTVSPropertyOp1
 70
     1
102
RTVSPropertyOp2
 70
     1
102
RTVSPropertyOp3
 70
     1
102
RTVSPropertyOp4
 70
     1
102
RTVSPropertyOp5
 70
     1
102
RTVSPropertyOp6
 70
     1
102
RTVSPropertyOp7
 70
     1
102
RTVSPropertyOp8
 70
     1
102
RTVSPropertyOp9
 70
     1
102
RTVSPropertyOp10
 70
     1
102
RTVSPropertyOp11
 70
     1
102
RTVSPropertyOp12
 70
     1
102
RTVSPropertyOp13
 70
     1
102
RTVSPropertyOp14
 70
     1
102
RTVSPropertyOp15
 70
     1
102
RTVSPropertyOp16
 70
     1
102
RTVSPropertyOp17
 70
     1
102
RTVSPropertyOp18
 70
     1
102
RTVSPropertyOp19
 70
     1
102
RTVSPropertyOp20
 70
     1
102
RTVSPropertyOp21
 70
     1
102
RTVSPropertyOp22
 70
     1
102
RTVSPropertyOp23
 70
     1
102
RTVSPropertyOp24
 70
     1
102
RTVSPropertyOp25
 70
     1
102
RTVSPropertyOp26
 70
     1
102
RTVSPropertyOp27
 70
     1
102
RTVSPropertyOp28
 70
     1
102
RTVSPropertyOp29
 70
     1
102
RTVSPropertyOp30
 70
     1
102
RTVSPropertyOp31
 70
     1
102
RTVSPropertyOp32
 70
     1
  0
XRECORD
  5
285
102
{ACAD_REACTORS
330
284
102
}
330
284
100
AcDbXrecord
280
     1
102
RTVSPropertyOp0
 70
     1
102
RTVSPropertyOp1
 70
     1
102
RTVSPropertyOp2
 70
     1
102
RTVSPropertyOp3
 70
     1
102
RTVSPropertyOp4
 70
     1
102
RTVSPropertyOp5
 70
     1
102
RTVSPropertyOp6
 70
     1
102
RTVSPropertyOp7
 70
     1
102
RTVSPropertyOp8
 70
     1
102
RTVSPropertyOp9
 70
     1
102
RTVSPropertyOp10
 70
     1
102
RTVSPropertyOp11
 70
     1
102
RTVSPropertyOp12
 70
     1
102
RTVSPropertyOp13
 70
     1
102
RTVSPropertyOp14
 70
     1
102
RTVSPropertyOp15
 70
     1
102
RTVSPropertyOp16
 70
     1
102
RTVSPropertyOp17
 70
     1
102
RTVSPropertyOp18
 70
     1
102
RTVSPropertyOp19
 70
     1
102
RTVSPropertyOp20
 70
     1
102
RTVSPropertyOp21
 70
     1
102
RTVSPropertyOp22
 70
     1
102
RTVSPropertyOp23
 70
     1
102
RTVSPropertyOp24
 70
     1
102
RTVSPropertyOp25
 70
     1
102
RTVSPropertyOp26
 70
     1
102
RTVSPropertyOp27
 70
     1
102
RTVSPropertyOp28
 70
     1
102
RTVSPropertyOp29
 70
     1
102
RTVSPropertyOp30
 70
     1
102
RTVSPropertyOp31
 70
     1
102
RTVSPropertyOp32
 70
     1
  0
XRECORD
  5
299
102
{ACAD_REACTORS
330
298
102
}
330
298
100
AcDbXrecord
280
     1
102
RTVSPropertyOp0
 70
     1
102
RTVSPropertyOp1
 70
     1
102
RTVSPropertyOp2
 70
     1
102
RTVSPropertyOp3
 70
     1
102
RTVSPropertyOp4
 70
     1
102
RTVSPropertyOp5
 70
     1
102
RTVSPropertyOp6
 70
     1
102
RTVSPropertyOp7
 70
     1
102
RTVSPropertyOp8
 70
     1
102
RTVSPropertyOp9
 70
     1
102
RTVSPropertyOp10
 70
     1
102
RTVSPropertyOp11
 70
     1
102
RTVSPropertyOp12
 70
     1
102
RTVSPropertyOp13
 70
     1
102
RTVSPropertyOp14
 70
     1
102
RTVSPropertyOp15
 70
     1
102
RTVSPropertyOp16
 70
     1
102
RTVSPropertyOp17
 70
     1
102
RTVSPropertyOp18
 70
     1
102
RTVSPropertyOp19
 70
     1
102
RTVSPropertyOp20
 70
     1
102
RTVSPropertyOp21
 70
     1
102
RTVSPropertyOp22
 70
     1
102
RTVSPropertyOp23
 70
     1
102
RTVSPropertyOp24
 70
     1
102
RTVSPropertyOp25
 70
     1
102
RTVSPropertyOp26
 70
     1
102
RTVSPropertyOp27
 70
     1
102
RTVSPropertyOp28
 70
     1
102
RTVSPropertyOp29
 70
     1
102
RTVSPropertyOp30
 70
     1
102
RTVSPropertyOp31
 70
     1
102
RTVSPropertyOp32
 70
     1
  0
XRECORD
  5
28F
102
{ACAD_REACTORS
330
28E
102
}
330
28E
100
AcDbXrecord
280
     1
102
RTVSPropertyOp0
 70
     1
102
RTVSPropertyOp1
 70
     1
102
RTVSPropertyOp2
 70
     1
102
RTVSPropertyOp3
 70
     1
102
RTVSPropertyOp4
 70
     1
102
RTVSPropertyOp5
 70
     1
102
RTVSPropertyOp6
 70
     1
102
RTVSPropertyOp7
 70
     1
102
RTVSPropertyOp8
 70
     1
102
RTVSPropertyOp9
 70
     1
102
RTVSPropertyOp10
 70
     1
102
RTVSPropertyOp11
 70
     1
102
RTVSPropertyOp12
 70
     1
102
RTVSPropertyOp13
 70
     1
102
RTVSPropertyOp14
 70
     1
102
RTVSPropertyOp15
 70
     1
102
RTVSPropertyOp16
 70
     1
102
RTVSPropertyOp17
 70
     1
102
RTVSPropertyOp18
 70
     1
102
RTVSPropertyOp19
 70
     1
102
RTVSPropertyOp20
 70
     1
102
RTVSPropertyOp21
 70
     1
102
RTVSPropertyOp22
 70
     1
102
RTVSPropertyOp23
 70
     1
102
RTVSPropertyOp24
 70
     1
102
RTVSPropertyOp25
 70
     1
102
RTVSPropertyOp26
 70
     1
102
RTVSPropertyOp27
 70
     1
102
RTVSPropertyOp28
 70
     1
102
RTVSPropertyOp29
 70
     1
102
RTVSPropertyOp30
 70
     1
102
RTVSPropertyOp31
 70
     1
102
RTVSPropertyOp32
 70
     1
  0
XRECORD
  5
297
102
{ACAD_REACTORS
330
296
102
}
330
296
100
AcDbXrecord
280
     1
102
RTVSPropertyOp0
 70
     1
102
RTVSPropertyOp1
 70
     1
102
RTVSPropertyOp2
 70
     1
102
RTVSPropertyOp3
 70
     1
102
RTVSPropertyOp4
 70
     1
102
RTVSPropertyOp5
 70
     1
102
RTVSPropertyOp6
 70
     1
102
RTVSPropertyOp7
 70
     1
102
RTVSPropertyOp8
 70
     1
102
RTVSPropertyOp9
 70
     1
102
RTVSPropertyOp10
 70
     1
102
RTVSPropertyOp11
 70
     1
102
RTVSPropertyOp12
 70
     1
102
RTVSPropertyOp13
 70
     1
102
RTVSPropertyOp14
 70
     1
102
RTVSPropertyOp15
 70
     1
102
RTVSPropertyOp16
 70
     1
102
RTVSPropertyOp17
 70
     1
102
RTVSPropertyOp18
 70
     1
102
RTVSPropertyOp19
 70
     1
102
RTVSPropertyOp20
 70
     1
102
RTVSPropertyOp21
 70
     1
102
RTVSPropertyOp22
 70
     1
102
RTVSPropertyOp23
 70
     1
102
RTVSPropertyOp24
 70
     1
102
RTVSPropertyOp25
 70
     1
102
RTVSPropertyOp26
 70
     1
102
RTVSPropertyOp27
 70
     1
102
RTVSPropertyOp28
 70
     1
102
RTVSPropertyOp29
 70
     1
102
RTVSPropertyOp30
 70
     1
102
RTVSPropertyOp31
 70
     1
102
RTVSPropertyOp32
 70
     1
  0
ENDSEC
  0
EOF
